<?xml version="1.0" standalone="no"?>
<!DOCTYPE svg PUBLIC "-//W3C//DTD SVG 1.1//EN" "http://www.w3.org/Graphics/SVG/1.1/DTD/svg11.dtd" >
<svg xmlns="http://www.w3.org/2000/svg">
<metadata></metadata>
<defs>
<font id="mondaregular" horiz-adv-x="1250" >
<font-face units-per-em="2048" ascent="1638" descent="-410" />
<missing-glyph horiz-adv-x="512" />
<glyph unicode="&#xfb01;" horiz-adv-x="1386" d="M110 918v142h177v162q0 147 80.5 215t245.5 68h119l12 -133h-116q-153 0 -153 -132v-180h709v-1060h-188v918h-521v-918h-188v918h-177zM996 1251v195h188v-195h-188z" />
<glyph unicode="&#xfb02;" horiz-adv-x="1486" d="M110 918v142h177v161q0 147 80.5 215.5t245.5 68.5h555v-1149q0 -128 38 -167t157 -39h33l-22 -158h-54q-93 0 -152 14t-104 53q-84 73 -84 299v1014h-352q-153 0 -153 -133v-179h257v-142h-257v-918h-188v918h-177z" />
<glyph horiz-adv-x="2048" />
<glyph horiz-adv-x="2048" />
<glyph unicode="&#xd;" horiz-adv-x="2048" />
<glyph unicode=" "  horiz-adv-x="512" />
<glyph unicode="&#x09;" horiz-adv-x="512" />
<glyph unicode="&#xa0;" horiz-adv-x="512" />
<glyph unicode="!" horiz-adv-x="768" d="M280 0v206h204v-206h-204zM286 1446h202q0 -314 -79 -1075h-56q-67 690 -67 1075z" />
<glyph unicode="&#x22;" horiz-adv-x="890" d="M176 1506h205l-49 -576h-112zM509 1506h205l-49 -576h-112z" />
<glyph unicode="#" horiz-adv-x="1284" d="M86 475v119h203l57 316h-236v119h258l76 417h170l-74 -417h301l76 417h170l-74 -417h185v-119h-206l-56 -316h238v-119h-259l-84 -475h-178l87 475h-298l-84 -475h-178l87 475h-181zM463 594h299l57 316h-300z" />
<glyph unicode="$" horiz-adv-x="1303" d="M144 113l71 154q90 -53 201.5 -85t203.5 -39v537l-167 56q-103 34 -163 77.5t-89.5 110t-29.5 157t24 154.5q83 221 425 232v171h110v-171q268 -11 411 -100l-49 -157q-162 88 -362 95v-471l149 -50q103 -36 163 -80q122 -90 122 -298q0 -410 -434 -427v-221h-110v222 q-270 14 -476 133zM366 1087q0 -72 30.5 -111t118.5 -69l105 -35v432q-104 -7 -165 -38q-81 -40 -87 -129q-2 -29 -2 -50zM730 141q60 3 102 15q108 31 134 146q12 53 12 120t-20 101q-33 57 -156 97l-72 24v-503z" />
<glyph unicode="%" horiz-adv-x="2048" d="M172 1057v53q0 186 66.5 278.5t233.5 92.5t232.5 -95t67.5 -275v-54q0 -184 -69 -281.5t-232.5 -97.5t-231 97.5t-67.5 281.5zM315 1040q0 -150 38.5 -198t116.5 -48q114 0 142 99q16 54 15 147v93q0 148 -38.5 190t-99.5 42q-61 1 -90 -11q-55 -22 -69.5 -76.5 t-14.5 -142.5v-95zM668 0l543 1446h149l-538 -1446h-154zM1276 360v53q0 186 66.5 278.5t233.5 92.5t232.5 -95t67.5 -275v-54q0 -184 -69 -281.5t-232.5 -97.5t-231 97.5t-67.5 281.5zM1419 343q0 -150 38.5 -198t116.5 -48q114 0 142 99q16 54 15 147v93q0 148 -38.5 190 t-99.5 42t-90 -12q-55 -22 -69.5 -76t-14.5 -142v-95z" />
<glyph unicode="&#x26;" horiz-adv-x="1500" d="M176 436q0 158 60.5 248t202.5 132q-63 57 -95 95q-80 94 -80 231q0 341 425 341q181 0 257 -23.5t108 -54.5q70 -66 70 -200v-101h-166v60q0 101 -54 134t-165 33t-162 -15t-87 -56t-36 -115.5t26 -118.5t98 -119l522 -497q1 14 1 45v323h175v-278q0 -160 -19 -239 l175 -167l-104 -113l-142 133q-120 -138 -474 -138q-536 0 -536 460zM378 445q0 -161 78 -240t249 -79t246.5 19t111.5 85l-525 493q-147 -40 -158 -206q-2 -29 -2 -72z" />
<glyph unicode="'" horiz-adv-x="896" d="M179 1506h205l-49 -576h-112z" />
<glyph unicode="(" horiz-adv-x="768" d="M172 440v519q0 202 10 250.5t21 95t29 74t43 62t60 54t98.5 46t210.5 26.5v-151q-176 0 -227 -86q-20 -34 -36.5 -75t-16.5 -259v-587q0 -215 16 -255q40 -97 87 -119q75 -35 177 -35v-150q-137 0 -249 39q-69 24 -141 107q-36 41 -58 131.5t-23 168.5t-1 144z" />
<glyph unicode=")" horiz-adv-x="768" d="M124 1q176 -1 227 85q20 34 36.5 75.5t16.5 259.5v587q0 215 -16 255q-40 97 -87 119q-75 35 -177 35v150q137 0 249 -39q69 -24 141 -107q36 -41 58 -131.5t23 -168.5t1 -144v-519q0 -202 -10 -250.5t-21 -95t-29 -74t-43 -62t-60 -54t-98.5 -46t-210.5 -26.5v151z" />
<glyph unicode="*" horiz-adv-x="1024" d="M99 911l290 117l-280 142l95 153l247 -190l-28 313h178l-30 -325l273 174l81 -161l-291 -117l280 -142l-95 -153l-247 190l29 -313h-178l29 325l-273 -174z" />
<glyph unicode="+" horiz-adv-x="1024" d="M162 494v148h275v326h151v-326h274v-148h-274v-338h-151v338h-275z" />
<glyph unicode="," horiz-adv-x="641" d="M192 0v233h257v-183q0 -173 -120 -330q-26 -34 -52 -58l-81 44q98 118 124 202q14 46 13 92h-141z" />
<glyph unicode="-" horiz-adv-x="1024" d="M162 494v148h700v-148h-700z" />
<glyph unicode="." horiz-adv-x="628" d="M186 0v242h256v-242h-256z" />
<glyph unicode="/" horiz-adv-x="768" d="M64 0l457 1506h183l-453 -1506h-187z" />
<glyph unicode="0" d="M132 636v154q0 210 16 283q34 152 77 214q126 181 383 181q306 0 412 -177q65 -107 81.5 -230t16.5 -284v-127q0 -202 -15.5 -276t-33 -126t-42 -88.5t-61.5 -73t-83.5 -58.5t-109.5 -36t-151.5 -14t-167.5 22q-153 43 -220.5 144.5t-84.5 221.5t-17 270zM334 619 q0 -214 30 -303q60 -176 266 -176q113 0 166 37q29 20 50 41q71 71 71 332v282q0 176 -14 250q-41 224 -256 224q-186 0 -251 -114q-40 -70 -51 -158.5t-11 -217.5v-197z" />
<glyph unicode="1" d="M206 0v155h401v1122l-374 -40l-18 159l429 50h164v-1291h354v-155h-956z" />
<glyph unicode="2" d="M164 1024q0 444 475 444q228 0 342 -115.5t114 -280.5t-59.5 -258t-122.5 -158.5t-71 -74.5l-401 -425h646v-156h-856l-19 158l488 531q133 144 151.5 177.5t36 73.5t17.5 117q0 137 -58 193t-193 56q-84 0 -135 -11t-88 -42q-66 -55 -66 -229h-201z" />
<glyph unicode="3" d="M208 431h192q12 -178 77 -236q36 -32 85 -43.5t128 -11.5q127 0 186 65t59 217t-55.5 201.5t-136 58.5t-156.5 9v149q160 0 216 26t81 63.5t25 158.5q0 218 -227 218q-118 0 -164 -22t-66 -53q-42 -66 -42 -206h-192q0 183 62 279.5t161.5 130t233.5 33.5 q195 0 308.5 -93.5t113.5 -283.5q0 -146 -54.5 -224.5t-177.5 -98.5q131 -27 196 -111t65 -274t-116 -297.5t-331 -107.5q-163 0 -258.5 43t-145.5 140t-67 270z" />
<glyph unicode="4" d="M143 351v157l529 938h209l-514 -940h416v331h167v-331h212v-155h-212v-351h-167v351h-640z" />
<glyph unicode="5" d="M173 107l53 153q62 -41 106 -63q114 -57 292 -57q219 0 283 172q21 56 21 127q0 152 -69 237.5t-214 85.5q-70 0 -124.5 -24.5t-138.5 -85.5l-146 60l51 734h737v-165h-576l-42 -462q101 92 263 92q220 0 334 -122t114 -336.5t-133.5 -344.5t-351.5 -130 q-104 0 -197 21.5t-145 45.5t-117 62z" />
<glyph unicode="6" d="M178 420q0 224 141 477l314 549h200l-357 -605q84 37 178 37q232 0 355 -108.5t123 -347.5q0 -334 -292 -419q-86 -25 -193 -25q-218 0 -343.5 109t-125.5 333zM365 423.5q0 -160.5 69.5 -222t216 -61.5t220.5 61.5t74 230t-77 226t-219 57.5t-213 -65.5t-71 -226z" />
<glyph unicode="7" d="M189 1291v155h881v-157l-490 -1289h-211l500 1291h-680z" />
<glyph unicode="8" d="M132 367q0 270 306 406q-125 58 -180.5 110t-76.5 105t-21 135t36 153q36 72 102 113q126 79 326.5 79t333 -83t132.5 -277q0 -134 -77 -206t-202 -129q307 -136 307 -406q0 -193 -132.5 -291t-362.5 -98t-360.5 98t-130.5 291zM323 372q0 -125 76.5 -178.5t225.5 -53.5 t225.5 53.5t76.5 172.5t-83.5 188.5t-218.5 134.5q-138 -67 -197.5 -117t-82 -96.5t-22.5 -103.5zM355 1107q1 -125 185 -219q30 -15 85 -42q157 78 183.5 102t56.5 58t30 116t-63 133t-207 51t-207 -51t-63 -148z" />
<glyph unicode="9" d="M152 1024q-1 334 293 419q86 25 193 25q218 0 343.5 -109t125.5 -333t-141 -477l-314 -549h-200l357 605q-84 -37 -178 -37q-232 0 -355.5 108.5t-123.5 347.5zM339 1014.5q0 -168.5 77 -226t219.5 -57.5t213.5 65.5t71 226t-69.5 222t-216 61.5t-221 -61.5t-74.5 -230z " />
<glyph unicode=":" horiz-adv-x="768" d="M256 99v242h256v-242h-256zM256 818v242h256v-242h-256z" />
<glyph unicode=";" horiz-adv-x="768" d="M248 818v242h256v-242h-256zM264 210v233h257v-183q0 -173 -120 -330q-26 -34 -52 -58l-81 44q98 118 124 202q14 46 13 92h-141z" />
<glyph unicode="&#x3c;" d="M156 471v201l886 472v-203l-731 -368l731 -364v-209z" />
<glyph unicode="=" d="M224 467v148h802v-148h-802zM224 805v148h802v-148h-802z" />
<glyph unicode="&#x3e;" d="M208 0v203l731 368l-731 364v209l886 -471v-201z" />
<glyph unicode="?" horiz-adv-x="1240" d="M179 1039v32q0 223 108.5 310t379 87t374.5 -160q55 -84 55 -172t-17 -145.5t-68 -132.5t-177 -208l-208 -219h-160l274 364q116 156 134 229q9 37 9 79q0 98 -50 150.5t-190 52.5t-203.5 -54t-63.5 -160v-53h-197zM440 0v206h204v-206h-204z" />
<glyph unicode="@" horiz-adv-x="2048" d="M362 332v563q0 337 220 479q169 108 480 109q187 0 271 -26.5t130 -47t78 -51.5t56 -58t51.5 -101t27.5 -227v-493q0 -68 14 -88t37.5 -25.5t64.5 -5.5l-20 -148h-40q-124 0 -171 72q-24 36 -40 92q-48 -72 -150 -126.5t-266 -54.5t-262.5 96.5t-98.5 241.5 q0 98 38.5 150t88.5 82q107 64 366 127t260 63q0 174 -46 243.5t-138 101t-251 31.5q-257 0 -383.5 -93t-126.5 -302v-638q0 -207 145.5 -308t406.5 -101q149 0 290 28.5t227 65.5l50 -141q-94 -40 -252 -70t-334.5 -30t-322.5 44.5t-232 125.5q-168 158 -168 420zM946 539 q0 -196 210 -196q100 0 209 51t132 128v303q-13 -6 -203 -55t-249 -80t-79 -65t-20 -86z" />
<glyph unicode="A" horiz-adv-x="1428" d="M86 0l539 1446h177l540 -1446h-205l-98 282h-645l-99 -282h-209zM442 425h551l-274 791z" />
<glyph unicode="B" horiz-adv-x="1420" d="M218 0v1446h524q336 0 426 -149q54 -89 54 -248q-5 -215 -182 -276q124 -28 188 -124t64 -238q0 -215 -121 -313t-385 -98h-568zM420 149h351q170 0 246.5 55t76.5 229q0 263 -274 263h-400v-547zM420 833h371q129 0 179.5 54t50.5 147t-13.5 140t-51 75t-93 37t-152.5 9 h-291v-462z" />
<glyph unicode="C" horiz-adv-x="1456" d="M182 486v454q0 316 164 431q139 97 404.5 97t385.5 -73.5t150 -230.5q14 -70 14 -167l-191 -17q0 146 -25 197.5t-49.5 73.5t-80.5 38.5t-175 16.5t-187 -16q-68 -15 -116 -52q-92 -71 -92 -261v-522q0 -188 93 -251.5t296.5 -63.5t259.5 48t69 140q7 50 7 120h191 q0 -218 -63 -306q-116 -164 -441 -164q-273 0 -400.5 65.5t-170.5 176t-43 266.5z" />
<glyph unicode="D" horiz-adv-x="1522" d="M218 0v1446h574q415 0 518 -294q30 -86 30 -193v-477q0 -237 -136.5 -359.5t-409.5 -122.5h-576zM420 150h354q218 0 291.5 81t73.5 231v509q0 221 -148 287q-82 37 -210 37h-7h-354v-1145z" />
<glyph unicode="E" horiz-adv-x="1255" d="M218 0v1446h903v-150h-702v-476h620v-150h-620v-520h714v-150h-915z" />
<glyph unicode="F" horiz-adv-x="1159" d="M218 0v1446h821v-150h-620v-482h584v-150h-584v-664h-201z" />
<glyph unicode="G" horiz-adv-x="1556" d="M186 486v454q0 309 180 431q143 97 402 97t379.5 -58.5t158.5 -156t38 -237.5l-184 -15q0 141 -27.5 188.5t-53 67.5t-86 34.5t-183 14.5t-192.5 -16q-70 -15 -124 -52q-106 -73 -106 -261v-522q0 -188 101 -251.5t297.5 -63.5t284 62.5t87.5 252.5v133h-343v147h545 v-735h-110l-25 246q-19 -125 -125.5 -196.5t-311.5 -71.5q-404 0 -529 200q-73 117 -73 308z" />
<glyph unicode="H" horiz-adv-x="1528" d="M212 0v1446h201v-639h702v639h201v-1446h-201v659h-702v-659h-201z" />
<glyph unicode="I" horiz-adv-x="1132" d="M190 0v150h276v1147h-276v149h752v-149h-275v-1147h275v-150h-752z" />
<glyph unicode="J" horiz-adv-x="1206" d="M102 70l55 155q51 -24 157 -50.5t202 -26.5q141 0 206 72t65 215v846h-553v165h754v-1015q0 -213 -114.5 -330.5t-351.5 -117.5q-115 0 -239 28.5t-181 58.5z" />
<glyph unicode="K" horiz-adv-x="1418" d="M218 0v1446h201v-789q161 195 384.5 448t299.5 341h218l-543 -648l572 -798h-223l-490 690l-218 -222v-468h-201z" />
<glyph unicode="L" horiz-adv-x="1145" d="M218 0v1446h201v-1291h649v-155h-850z" />
<glyph unicode="M" horiz-adv-x="1778" d="M218 0v1446h185l487 -808l492 808h178v-1446h-190v1121l-405 -663h-149l-406 659v-1117h-192z" />
<glyph unicode="N" horiz-adv-x="1594" d="M218 0v1446h153l828 -1156v1156h177v-1446h-179l-802 1104v-1104h-177z" />
<glyph unicode="O" horiz-adv-x="1546" d="M186 486v455q0 311 176 431q142 96 420 96q492 0 563 -366q15 -77 15 -174v-428q0 -302 -173 -424q-139 -98 -392 -98t-384 66t-178 177t-47 265zM388 455q0 -187 98 -251t295.5 -64t287.5 63.5t90 251.5v523q0 188 -90.5 258t-286.5 70q-304 0 -369 -168 q-25 -64 -25 -160v-523z" />
<glyph unicode="P" horiz-adv-x="1326" d="M218 0v1446h578q402 0 402 -455q0 -248 -104.5 -355t-300.5 -107h-373v-529h-202zM420 682h377q177 0 195 206q4 38 4 90q0 175 -47.5 245t-146.5 70h-382v-611z" />
<glyph unicode="Q" horiz-adv-x="1542" d="M186 486v455q0 311 176 431q142 96 420 96q492 0 563 -366q15 -77 15 -174v-428q0 -302 -173 -424q-107 -75 -292 -93l190 -291l-141 -76l-230 363q-278 12 -403 132t-125 375zM388 455q0 -187 98 -251t295.5 -64t287.5 63.5t90 251.5v523q0 188 -90.5 258t-286.5 70 q-304 0 -369 -168q-25 -64 -25 -160v-523z" />
<glyph unicode="R" horiz-adv-x="1464" d="M218 0v1446h645q299 0 375 -226q29 -86 29 -204q0 -114 -27 -190q-27 -78 -69.5 -120.5t-107.5 -69.5l307 -636h-207l-287 600l-456 -1v-599h-202zM420 752h426q128 0 173.5 69t45.5 195q-1 226 -119 266q-31 11 -70 11h-7h-449v-541z" />
<glyph unicode="S" horiz-adv-x="1304" d="M144 113l71 154q90 -53 218.5 -90t250 -37t183.5 31q111 56 111 228q0 71 -7 95q-23 80 -169 126l-349 116q-169 55 -225.5 139.5t-56.5 216.5q1 190 139 290q119 85 346 86q323 0 485 -101l-49 -157q-178 96 -401 96q-155 0 -236 -40t-87 -129q-2 -28 -2 -50 q0 -72 30.5 -111t118.5 -69l364 -123q150 -51 217.5 -133.5t67.5 -244.5q0 -428 -473 -428q-314 0 -547 135z" />
<glyph unicode="T" horiz-adv-x="1204" d="M84 1281v165h1036v-165h-418v-1281h-201v1281h-417z" />
<glyph unicode="U" horiz-adv-x="1538" d="M200 473v973h202v-994q0 -272 260 -306q51 -6 126 -6q154 0 251 60t97 252v994h202v-973q0 -281 -166 -399q-136 -96 -396 -96q-386 0 -508 204q-68 114 -68 291z" />
<glyph unicode="V" horiz-adv-x="1386" d="M86 1446h207l399 -1152l399 1152h209l-521 -1446h-177z" />
<glyph unicode="W" horiz-adv-x="2048" d="M112 1446h184l307 -1100l315 1100h215l329 -1100l291 1100h183l-394 -1446h-152l-353 1232l-363 -1232h-152z" />
<glyph unicode="X" horiz-adv-x="1336" d="M94 0l471 731l-449 715h203l350 -548l341 548h217l-454 -712l469 -734h-218l-357 568l-361 -568h-212z" />
<glyph unicode="Y" horiz-adv-x="1318" d="M48 1446h213l400 -702l402 702h207l-509 -878v-568h-201v568z" />
<glyph unicode="Z" horiz-adv-x="1242" d="M180 0v150l682 1131h-651v165h872v-151l-681 -1130h694v-165h-916z" />
<glyph unicode="[" horiz-adv-x="768" d="M256 -76v1605h378v-133h-190v-1338h190v-134h-378z" />
<glyph unicode="\" horiz-adv-x="768" d="M64 1506h187l453 -1506h-183z" />
<glyph unicode="]" horiz-adv-x="768" d="M195 57h190v1338h-190v134h378v-1605h-378v133z" />
<glyph unicode="^" horiz-adv-x="1257" d="M154 626l359 657h222l368 -657h-193l-282 535l-280 -535h-194z" />
<glyph unicode="_" horiz-adv-x="929" d="M14 46h901v-150h-901v150z" />
<glyph unicode="`" horiz-adv-x="616" d="M115 1506h225l138 -341h-106z" />
<glyph unicode="a" horiz-adv-x="1172" d="M132 283q0 74 31 123q63 100 376 191q181 50 208.5 86t30.5 56.5t3 65.5t-36.5 88t-158.5 43q-172 0 -211 -66q-20 -34 -20 -92v-47h-181v48q0 155 103.5 228t309.5 73t294 -93.5t88 -266.5v-452q0 -83 21 -107.5t90 -24.5l-22 -144h-38q-100 0 -149 38.5t-75 119.5 q-83 -124 -200 -156q-56 -16 -125 -16q-161 0 -250 87.5t-89 217.5zM314 270.5q0 -74.5 50.5 -112.5t122 -38t129.5 18.5t104.5 55t60.5 83.5v306q-73 -73 -215.5 -114.5t-197 -82.5t-54.5 -115.5z" />
<glyph unicode="b" horiz-adv-x="1204" d="M186 0v1506h188v-496q124 70 299 70t279 -93t104 -251v-384q0 -165 -114 -269.5t-316 -104.5q-128 0 -277 93l-24 -71h-139zM374 188q110 -62 224.5 -62t192 55.5t77.5 150.5v418q0 186 -235 186q-115 0 -259 -66v-682z" />
<glyph unicode="c" horiz-adv-x="1110" d="M148 344v404q0 151 115 241.5t311 90.5q250 0 344 -108q74 -84 74 -248l-179 -17q0 142 -50.5 185.5t-179.5 43.5t-188 -45t-59 -148v-415q0 -110 62 -158t191.5 -48t173 34t53.5 154h174q-16 -184 -106 -258t-305 -74q-325 0 -407 226q-24 64 -24 140z" />
<glyph unicode="d" horiz-adv-x="1200" d="M148 335v400q0 165 109 255t334 90q128 0 235 -40v466h188v-1506h-128l-31 70q-49 -38 -129 -65t-158 -27q-217 0 -318.5 96.5t-101.5 260.5zM336 321q0 -95 67.5 -145t158.5 -50q162 0 264 63v703q-91 44 -221 44q-269 0 -269 -180v-435z" />
<glyph unicode="e" horiz-adv-x="1158" d="M148 374v369q0 157 107 247t323.5 90t322 -83.5t105.5 -238.5v-252h-670v-149q0 -132 53 -183.5t191 -51.5t156 6t37 14t26.5 19t20 33.5t18.5 87.5h166q-10 -95 -33.5 -153t-74 -92.5t-121 -46.5t-186.5 -12q-233 0 -337 97t-104 299zM336 633h488v145q0 90 -61.5 124 t-180.5 34t-182.5 -41t-63.5 -135v-127z" />
<glyph unicode="f" horiz-adv-x="790" d="M110 918v142h177v161q0 147 80.5 215.5t245.5 68.5h119l12 -133h-116q-153 0 -153 -133v-179h257v-142h-257v-918h-188v918h-177z" />
<glyph unicode="g" horiz-adv-x="1186" d="M148 379v349q0 165 100.5 258.5t301.5 93.5q80 0 164.5 -33.5t107.5 -71.5v85h188v-1035q0 -191 -100.5 -312t-324.5 -121t-332 40l42 141q104 -38 255 -38t211.5 57t60.5 177v147q-41 -38 -122.5 -57t-149.5 -19q-402 0 -402 339zM336 350q0 -166 243 -166q143 0 243 80 v526q0 146 -243 146t-243 -188v-398z" />
<glyph unicode="h" horiz-adv-x="1226" d="M186 0v1505h188v-545q103 120 316 120q270 0 340 -188q20 -54 20 -119v-773h-188v783q0 153 -236 153q-118 0 -185 -49t-67 -129v-758h-188z" />
<glyph unicode="i" horiz-adv-x="596" d="M206 0v1060h188v-1060h-188zM206 1251v195h188v-195h-188z" />
<glyph unicode="j" horiz-adv-x="602" d="M13 -197h29q102 0 136 26.5t44 65t10 101.5v1064h188v-1053q0 -261 -120 -323q-71 -37 -202 -37h-66zM232 1251v195h188v-195h-188z" />
<glyph unicode="k" horiz-adv-x="1152" d="M186 0v1506h188v-982l507 536h206l-431 -466l474 -594h-217l-380 492l-159 -158v-334h-188z" />
<glyph unicode="l" horiz-adv-x="696" d="M190 358v1147h188v-1149q0 -128 38 -167t157 -39h33l-22 -158h-54q-93 0 -152 14t-104 53q-84 73 -84 299z" />
<glyph unicode="m" horiz-adv-x="1860" d="M186 0v1060h188v-103q106 123 318.5 123t296.5 -139l25 24q115 115 322 115q267 0 330 -190q18 -54 18 -120v-770h-188v781q0 155 -208 155q-131 0 -193.5 -49.5t-62.5 -131.5v-755h-188v781q0 155 -229 155q-116 0 -178.5 -49.5t-62.5 -131.5v-755h-188z" />
<glyph unicode="n" horiz-adv-x="1226" d="M186 0v1060h188v-103q106 123 314 123q270 0 342 -190q20 -54 20 -120v-770h-188v781q0 155 -237 155q-117 0 -184 -50t-67 -131v-755h-188z" />
<glyph unicode="o" horiz-adv-x="1174" d="M148 315v427q0 157 105.5 247.5t332.5 90.5t333.5 -91t106.5 -247v-427q0 -156 -106.5 -246.5t-333.5 -90.5t-332.5 90t-105.5 247zM336 299q0 -177 251 -177t251 177v459q0 178 -251 178t-251 -178v-459z" />
<glyph unicode="p" horiz-adv-x="1198" d="M186 -408v1468h148l22 -80q46 41 126 70.5t166 29.5q197 0 299.5 -96t102.5 -255v-385q0 -164 -112 -265t-314 -101q-140 0 -250 56v-442h-188zM374 179q101 -57 226 -57t193.5 53t68.5 149v420q0 92 -67.5 142t-165 50t-166 -40t-89.5 -72v-645z" />
<glyph unicode="q" horiz-adv-x="1200" d="M148 314v414q0 164 105 258t307 94q79 0 161 -33.5t105 -71.5v85h188v-1468h-188v455q-45 -34 -117 -51.5t-136 -17.5q-201 0 -313 90.5t-112 245.5zM336 284q0 -162 249 -162q93 0 161.5 28.5t79.5 50.5v609q0 50 -61 88t-177 38t-184 -47t-68 -141v-464z" />
<glyph unicode="r" horiz-adv-x="794" d="M186 0v1060h188v-150q36 98 195 142q80 23 166 23h7l-6 -161q-136 0 -249 -54t-113 -118v-742h-188z" />
<glyph unicode="s" horiz-adv-x="992" d="M142 64l46 138q143 -80 315 -80q213 0 213 159q0 69 -19 102.5t-89 59.5l-252 93q-116 41 -161.5 97.5t-45.5 141.5t17 136.5t56 90.5q78 78 280 78t348 -58l-43 -144q-51 21 -134 39.5t-145 18.5q-143 0 -181 -46q-23 -29 -23 -85t18.5 -79.5t72.5 -42.5l249 -98 q130 -51 171 -112.5t41 -193.5t-85 -216.5t-263 -84.5q-130 0 -231 28t-155 58z" />
<glyph unicode="t" horiz-adv-x="840" d="M80 918v142h184l23 328h158v-328h266v-142h-266v-603q0 -100 57.5 -132.5t200.5 -32.5h21l-20 -158h-28q-222 0 -320.5 70t-98.5 241v615h-177z" />
<glyph unicode="u" horiz-adv-x="1224" d="M176 290v770h188v-771q0 -78 57.5 -122.5t171.5 -44.5t185.5 56.5t71.5 130.5v751h188v-1060h-168l-20 133q-88 -155 -309 -155q-271 0 -344 192q-21 55 -21 120z" />
<glyph unicode="v" horiz-adv-x="1104" d="M64 1060h189l319 -860l284 860h184l-375 -1060h-190z" />
<glyph unicode="w" horiz-adv-x="1614" d="M52 1060h172l235 -832l255 832h181l266 -832l227 832h174l-310 -1060h-175l-271 845l-271 -845h-178z" />
<glyph unicode="x" horiz-adv-x="1056" d="M64 0l377 533l-371 527h189l276 -394l279 394h181l-369 -525l374 -535h-183l-283 403l-283 -403h-187z" />
<glyph unicode="y" horiz-adv-x="1118" d="M76 1060h199l324 -844l271 844h190l-348 -1015q-69 -201 -124.5 -278.5t-106.5 -108.5q-105 -64 -283 -64v147q124 0 200.5 61t114.5 202z" />
<glyph unicode="z" horiz-adv-x="964" d="M140 0v118l507 818h-489v124h687v-115l-510 -821h519v-124h-714z" />
<glyph unicode="{" horiz-adv-x="952" d="M158 574v151h98q44 -1 90 17q9 4 24.5 35t15.5 139v130q0 198 14 237q36 104 70 129q78 58 144 70q118 24 252 24v-151q-178 1 -224 -35q-16 -12 -26 -22q-38 -36 -38 -199v-97q0 -301 -104 -352q104 -51 104 -353v-62q0 -160 12 -185.5t26.5 -46.5t34.5 -29t60 -19 t155 -11v-151q-246 1 -336 55q-36 22 -60 39.5t-54 84t-30 231.5v206q0 33 -6.5 74.5t-13.5 52t-29 24t-45.5 14t-57.5 0.5h-76z" />
<glyph unicode="|" horiz-adv-x="690" d="M256 -167v1722h178v-1722h-178z" />
<glyph unicode="}" horiz-adv-x="952" d="M128 -56q115 0 155 11t60 19t46.5 46.5t26.5 166.5v110q0 301 104 352q-104 51 -104 353v62q0 160 -12 185.5t-26.5 46.5t-34.5 29t-60 19t-155 11v151q246 0 336 -54q36 -22 60 -40t54 -84.5t30 -231.5v-206q0 -33 6.5 -74.5t13.5 -52t29 -24t45.5 -14t57.5 -0.5h76 v-151h-71q-39 0 -62.5 -0.5t-45.5 -14t-29 -24t-13.5 -52t-6.5 -74.5v-156q0 -180 -10 -217t-22 -71.5t-30 -52.5t-43.5 -41.5t-61 -34.5t-99 -27t-214.5 -16v151z" />
<glyph unicode="~" horiz-adv-x="881" d="M64 1452h97q0 -54 27 -93.5t74 -39.5q47 1 117 51q133 96 223 96t152.5 -78.5t62.5 -200.5h-97q0 54 -27 93.5t-74 39.5t-117 -50q-133 -96 -223 -96.5t-152.5 78t-62.5 200.5z" />
<glyph unicode="&#xa1;" horiz-adv-x="768" d="M280 -180q0 314 79 1075h56q67 -690 67 -1075h-202zM284 1060v206h204v-206h-204z" />
<glyph unicode="&#xa2;" horiz-adv-x="1110" d="M148 344v404q0 151 110 237.5t282 93.5v198h103v-199q194 -12 271.5 -101t77.5 -253l-179 -17q0 142 -50.5 185.5t-179.5 43.5t-188 -45t-59 -148v-415q0 -110 62 -158t191.5 -48t173 34t53.5 154h174q-16 -184 -99 -252t-248 -78v-185h-103v184q-290 13 -368 225 q-24 64 -24 140z" />
<glyph unicode="&#xa3;" horiz-adv-x="1273" d="M166 668v141h170l31 316q14 154 113.5 256.5t259 102.5t337.5 -86l-54 -139q-140 68 -253 68q-188 0 -211 -223l-30 -295h483v-141h-498l-52 -506h574v-162h-775l62 668h-157z" />
<glyph unicode="&#xa4;" horiz-adv-x="1149" d="M116 979l54 82l180 -124q86 81 215 81t215 -83l193 140l50 -82l-184 -133q44 -83 44 -158.5t-21 -130.5l171 -114l-52 -81l-164 110q-90 -126 -245 -126t-248 108l-147 -108l-51 83l148 106q-29 66 -29 150.5t46 162.5zM340 690.5q0 -102.5 64.5 -174.5t160.5 -72 t160.5 72t64.5 174.5t-64.5 174t-160.5 71.5t-160.5 -71.5t-64.5 -174z" />
<glyph unicode="&#xa5;" horiz-adv-x="1318" d="M48 1446h213l400 -702l402 702h207l-428 -738h221v-148h-302v-160h302v-148h-302v-252h-201v252h-300v148h300v160h-300v148h218z" />
<glyph unicode="&#xa6;" horiz-adv-x="674" d="M254 -167v680h178v-680h-178zM254 848v707h178v-707h-178z" />
<glyph unicode="&#xa7;" horiz-adv-x="1002" d="M144 64l47 138q149 -80 325 -80q220 0 220 159q0 68 -20 102t-92 60l-259 93q-120 43 -167 99.5t-47 174.5t72 187q-72 61 -72 181q0 218 186 270q70 20 169 20q216 0 368 -58l-45 -144q-146 58 -321 58q-97 0 -136.5 -32t-39.5 -93.5t19 -84t74 -43.5l257 -98 q134 -51 176 -112.5t42 -179.5t-54 -194q54 -59 54 -199.5t-87.5 -225t-270.5 -84.5q-134 0 -238 28t-160 58zM332 797.5q0 -40.5 19.5 -67t73.5 -47.5l291 -112q20 44 20 105t-20 95t-92 60l-259 93q-8 0 -20.5 -43t-12.5 -83.5z" />
<glyph unicode="&#xa8;" horiz-adv-x="1025" d="M158 1265v181h206v-181h-206zM661 1265v181h206v-181h-206z" />
<glyph unicode="&#xa9;" horiz-adv-x="1784" d="M156 721.5q0 205.5 97.5 374t266 264.5t373 96t373.5 -96t265.5 -264.5t96.5 -348.5t-57 -316.5t-154.5 -234t-234 -154t-315.5 -56.5t-347.5 96t-266 265t-97.5 374.5zM265 722q0 -180 80.5 -326.5t225 -230t324 -83.5t323.5 83.5t224 229.5t80 326.5t-80 326.5 t-224 229.5t-323.5 83.5t-324 -83.5t-225 -229.5t-80.5 -326zM551 590v278q0 236 175 292q72 22 174 22q203 0 265.5 -87.5t62.5 -233.5v-25l-116 -10v64q0 113 -47.5 157t-164 44t-173 -45.5t-56.5 -155.5v-319q0 -109 56 -152t174.5 -43t164.5 41.5t46 153.5v61h116v-34 q0 -117 -28 -171.5t-63 -80.5q-77 -58 -260 -58.5t-254.5 80.5t-71.5 222z" />
<glyph unicode="&#xaa;" horiz-adv-x="1045" d="M186 763q0 64 25 106q51 85 303 163q146 43 168 74t24.5 48.5t2.5 56t-29.5 75t-127.5 36.5q-138 0 -170 -56q-16 -29 -16 -79v-40h-146v41q0 133 83.5 195.5t249.5 62.5t237 -80.5t71 -228.5v-387q0 -71 17 -92t72 -21l-17 -123h-31q-81 0 -120.5 33t-60.5 102 q-66 -106 -161 -133q-45 -14 -100 -14q-130 0 -202 75t-72 186zM333 752.5q0 -63.5 40.5 -96t98.5 -32.5t104.5 15.5t84 47t48.5 71.5v262q-59 -62 -173.5 -97.5t-158.5 -71t-44 -99z" />
<glyph unicode="&#xab;" horiz-adv-x="1054" d="M96 530l273 450l147 -70l-207 -380l207 -380l-140 -70zM510 530l273 450l145 -70l-205 -380l205 -380l-138 -70z" />
<glyph unicode="&#xac;" horiz-adv-x="864" d="M98 556v136h623v-359h-132v223h-491z" />
<glyph unicode="&#xad;" horiz-adv-x="1024" d="M162 494v148h700v-148h-700z" />
<glyph unicode="&#xae;" horiz-adv-x="1784" d="M156 721.5q0 205.5 97.5 374t266 264.5t373 96t373.5 -96t265.5 -264.5t96.5 -348.5t-57 -316.5t-154.5 -234t-234 -154t-315.5 -56.5t-347.5 96t-266 265t-97.5 374.5zM265 722q0 -180 80.5 -326.5t225 -230t324 -83.5t323.5 83.5t224 229.5t80 326.5t-80 326.5 t-224 229.5t-323.5 83.5t-324 -83.5t-225 -229.5t-80.5 -326zM596 319v834h403q257 0 263 -245v-14q0 -187 -152 -228l184 -347h-128l-180 333h-259v-333h-131zM727 742h267q134 0 136 135v24q0 161 -127 161h-276v-320z" />
<glyph unicode="&#xaf;" horiz-adv-x="513" d="M32 1359v147h449v-147h-449z" />
<glyph unicode="&#xb0;" horiz-adv-x="1036" d="M194 1122q0 134 95 229t229 95t229 -95t95 -229t-95 -229t-229 -95t-229 95t-95 229zM291 1123q0 -99 65.5 -168.5t162.5 -69.5t162.5 69.5t65.5 168.5t-65.5 168.5t-162.5 69.5t-162.5 -69.5t-65.5 -168.5z" />
<glyph unicode="&#xb1;" horiz-adv-x="1041" d="M207 0v120h627v-120h-627zM207 611v115h253v266h121v-266h253v-115h-253v-277h-121v277h-253z" />
<glyph unicode="&#xb2;" horiz-adv-x="1052" d="M190 1174q0 157 91.5 233.5t231.5 76.5t223.5 -81t83.5 -197.5t-35 -188t-115 -152.5l-320 -316h465v-100h-585l-11 110l359 389q82 88 101.5 136t19.5 122t-44 128q-45 53 -139 53q-206 0 -205 -213h-121z" />
<glyph unicode="&#xb3;" horiz-adv-x="1173" d="M200 761h138q4 -189 132 -223q50 -14 136.5 -13.5t146.5 48t60 132.5q1 85 -25 129q-51 87 -289 87v99q179 0 228.5 34.5t58 67t8.5 96.5t-49 112t-155 48q-186 0 -225 -110q-16 -46 -16 -115h-136q4 283 261 323q52 8 130 8t152.5 -29.5t122.5 -94t48 -160.5 q0 -192 -192 -228q163 -30 199 -144q14 -46 14 -109q0 -150 -99.5 -225.5t-258.5 -75.5q-286 0 -358 174q-28 68 -32 169z" />
<glyph unicode="&#xb4;" horiz-adv-x="616" d="M133 1165l120 341h225l-239 -341h-106z" />
<glyph unicode="&#xb5;" horiz-adv-x="307" />
<glyph unicode="&#xb6;" d="M168 1156q0 220 216 274q62 16 137 16h440v-1446h-136v1338h-204v-1338h-136v870q-135 3 -226 79.5t-91 206.5z" />
<glyph unicode="&#xb7;" horiz-adv-x="412" d="M108 1277v206h205v-206h-205z" />
<glyph unicode="&#xb8;" horiz-adv-x="512" d="M120 -382q36 -7 88 -7t87.5 28.5t35.5 74t-44.5 86t-115.5 42.5v158h62l6 -94q105 -19 163 -78.5t58 -133t-65 -127t-182 -53.5q-48 0 -93 8v96z" />
<glyph unicode="&#xb9;" horiz-adv-x="1050" d="M207 654v101h274v639l-256 -26l-12 104l292 33h107v-750h231v-101h-636z" />
<glyph unicode="&#xba;" horiz-adv-x="1023" d="M156 786v367q0 135 85.5 213t269 78t270 -78t86.5 -213v-367q0 -134 -86.5 -212t-270 -78t-269 77.5t-85.5 212.5zM308 772q0 -152 203.5 -152t203.5 152v395q0 153 -203.5 153t-203.5 -153v-395z" />
<glyph unicode="&#xbb;" horiz-adv-x="1054" d="M126 150l205 380l-205 380l138 70l280 -450l-273 -450zM538 150l207 380l-207 380l140 70l280 -450l-273 -450z" />
<glyph unicode="&#xbc;" horiz-adv-x="2047" d="M164 654v101h274v639l-256 -26l-12 104l292 33h107v-750h231v-101h-636zM687 0l684 1446h126l-678 -1446h-132zM1221 207v92l359 593h141l-348 -594h282v235h113v-235h144v-91h-144v-207h-113v207h-434z" />
<glyph unicode="&#xbd;" horiz-adv-x="2047" d="M164 654v101h274v639l-256 -26l-12 104l292 33h107v-750h231v-101h-636zM687 0l684 1446h126l-678 -1446h-132zM1332 605q0 133 75 197.5t206 64.5t198.5 -68t67.5 -174q0 -61 -14 -92t-19.5 -45t-26.5 -40t-26.5 -33.5t-34 -38.5t-33.5 -37l-213 -238h371v-99h-512 l-11 92l283 319q103 111 113 157q6 24 6 63t-15 70q-30 62 -128.5 62t-134 -31t-35.5 -129h-117z" />
<glyph unicode="&#xbe;" horiz-adv-x="2047" d="M199 932h135q6 -113 53.5 -149.5t148 -36.5t139 37.5t38.5 109.5q1 72 -17 106q-34 67 -227 67v85q112 0 145.5 13t48.5 23q32 21 32 108q0 126 -162 126q-128 0 -157 -40.5t-29 -127.5h-135q3 185 131 235q70 28 198 27.5t207 -54.5t79 -151t-38 -142.5t-125 -57.5 q92 -16 137.5 -64.5t45.5 -159t-78.5 -172t-240 -61.5t-239 61t-90.5 218zM687 0l684 1446h126l-678 -1446h-132zM1221 207v92l359 593h141l-348 -594h282v235h113v-235h144v-91h-144v-207h-113v207h-434z" />
<glyph unicode="&#xbf;" horiz-adv-x="1240" d="M147 130q0 88 17 145.5t68 132.5t177 208l208 219h160l-274 -364q-116 -156 -134 -229q-9 -37 -9 -79q0 -98 50 -150.5t190 -52.5t203.5 54t63.5 160v53h197v-32q0 -223 -108.5 -310t-379 -87t-374.5 160q-55 84 -55 172zM599 1060v206h204v-206h-204z" />
<glyph unicode="&#xc0;" horiz-adv-x="1428" d="M86 0l539 1446h177l540 -1446h-205l-98 282h-645l-99 -282h-209zM404 1972h225l138 -341h-106zM442 425h551l-274 791z" />
<glyph unicode="&#xc1;" horiz-adv-x="1428" d="M86 0l539 1446h177l540 -1446h-205l-98 282h-645l-99 -282h-209zM442 425h551l-274 791zM661 1631l120 341h225l-239 -341h-106z" />
<glyph unicode="&#xc2;" horiz-adv-x="1428" d="M86 0l539 1446h177l540 -1446h-205l-98 282h-645l-99 -282h-209zM428 1631l216 266h150l206 -266h-156l-124 174l-132 -174h-160zM442 425h551l-274 791z" />
<glyph unicode="&#xc3;" horiz-adv-x="1428" d="M86 0l539 1446h177l540 -1446h-205l-98 282h-645l-99 -282h-209zM417 1860h97q0 -93 74 -93q36 0 91 53.5t146.5 53.5t138 -54t46.5 -175h-97q0 93 -74 93q-36 0 -91 -53.5t-146.5 -53.5t-138 54t-46.5 175zM442 425h551l-274 791z" />
<glyph unicode="&#xc4;" horiz-adv-x="1428" d="M86 0l539 1446h177l540 -1446h-205l-98 282h-645l-99 -282h-209zM360 1631v181h206v-181h-206zM442 425h551l-274 791zM863 1631v181h206v-181h-206z" />
<glyph unicode="&#xc5;" horiz-adv-x="1428" d="M86 0l539 1446h177l540 -1446h-205l-98 282h-645l-99 -282h-209zM442 425h551l-274 791zM520 1634q0 87 56 132.5t138 45.5t138 -45.5t56 -132.5t-56 -132.5t-138 -45.5t-138 45.5t-56 132.5zM605 1635q0 -114 109 -114t109 113t-109 113q-48 0 -78.5 -26t-30.5 -86z" />
<glyph unicode="&#xc6;" horiz-adv-x="1686" d="M98 3l394 1443h1058v-150h-485v-482h424v-150h-424v-514h494v-150h-685v282h-499l-73 -282zM411 417h463v879h-242z" />
<glyph unicode="&#xc7;" horiz-adv-x="1456" d="M182 486v454q0 316 164 431q139 97 404.5 97t385.5 -73.5t150 -230.5q14 -70 14 -167l-191 -17q0 146 -25 197.5t-49.5 73.5t-80.5 38.5t-175 16.5t-187 -16q-68 -15 -116 -52q-92 -71 -92 -261v-522q0 -188 93 -251.5t296.5 -63.5t259.5 48t69 140q7 50 7 120h191 q0 -218 -63 -306q-116 -164 -441 -164q-273 0 -400.5 65.5t-170.5 176t-43 266.5zM630 -388q36 -7 88 -7t87.5 28.5t35.5 74t-44.5 86t-115.5 42.5v158h62l6 -94q105 -19 163 -78.5t58 -133t-65 -127t-182 -53.5q-48 0 -93 8v96z" />
<glyph unicode="&#xc8;" horiz-adv-x="1255" d="M218 0v1446h903v-150h-702v-476h620v-150h-620v-520h714v-150h-915zM365 1972h225l138 -341h-106z" />
<glyph unicode="&#xc9;" horiz-adv-x="1255" d="M218 0v1446h903v-150h-702v-476h620v-150h-620v-520h714v-150h-915zM623 1631l120 341h225l-239 -341h-106z" />
<glyph unicode="&#xca;" horiz-adv-x="1255" d="M218 0v1446h903v-150h-702v-476h620v-150h-620v-520h714v-150h-915zM390 1631l216 266h150l206 -266h-156l-124 174l-132 -174h-160z" />
<glyph unicode="&#xcb;" horiz-adv-x="1255" d="M218 0v1446h903v-150h-702v-476h620v-150h-620v-520h714v-150h-915zM321 1631v181h206v-181h-206zM824 1631v181h206v-181h-206z" />
<glyph unicode="&#xcc;" horiz-adv-x="1132" d="M190 0v150h276v1147h-276v149h752v-149h-275v-1147h275v-150h-752zM256 1972h225l138 -341h-106z" />
<glyph unicode="&#xcd;" horiz-adv-x="1132" d="M190 0v150h276v1147h-276v149h752v-149h-275v-1147h275v-150h-752zM513 1631l120 341h225l-239 -341h-106z" />
<glyph unicode="&#xce;" horiz-adv-x="1132" d="M190 0v150h276v1147h-276v149h752v-149h-275v-1147h275v-150h-752zM280 1631l216 266h150l206 -266h-156l-124 174l-132 -174h-160z" />
<glyph unicode="&#xcf;" horiz-adv-x="1132" d="M190 0v150h276v1147h-276v149h752v-149h-275v-1147h275v-150h-752zM212 1631v181h206v-181h-206zM715 1631v181h206v-181h-206z" />
<glyph unicode="&#xd0;" horiz-adv-x="1215" d="M76 698v151h142v597h574q415 0 518 -294q30 -86 30 -193v-477q0 -237 -136.5 -359.5t-409.5 -122.5h-576v698h-142zM420 150h354q218 0 291.5 81t73.5 231v509q0 221 -148 287q-84 38 -217 37h-354v-446h358v-151h-358v-548z" />
<glyph unicode="&#xd1;" horiz-adv-x="1594" d="M218 0v1446h153l828 -1156v1156h177v-1446h-179l-802 1104v-1104h-177zM501 1860h97q0 -93 74 -93q36 0 91 53.5t146.5 53.5t138 -54t46.5 -175h-97q0 93 -74 93q-36 0 -91 -53.5t-146.5 -53.5t-138 54t-46.5 175z" />
<glyph unicode="&#xd2;" horiz-adv-x="1546" d="M186 486v455q0 311 176 431q142 96 420 96q492 0 563 -366q15 -77 15 -174v-428q0 -302 -173 -424q-139 -98 -392 -98t-384 66t-178 177t-47 265zM388 455q0 -187 98 -251t295.5 -64t287.5 63.5t90 251.5v523q0 188 -90.5 258t-286.5 70q-304 0 -369 -168 q-25 -64 -25 -160v-523zM463 1972h225l138 -341h-106z" />
<glyph unicode="&#xd3;" horiz-adv-x="1546" d="M186 486v455q0 311 176 431q142 96 420 96q492 0 563 -366q15 -77 15 -174v-428q0 -302 -173 -424q-139 -98 -392 -98t-384 66t-178 177t-47 265zM388 455q0 -187 98 -251t295.5 -64t287.5 63.5t90 251.5v523q0 188 -90.5 258t-286.5 70q-304 0 -369 -168 q-25 -64 -25 -160v-523zM720 1631l120 341h225l-239 -341h-106z" />
<glyph unicode="&#xd4;" horiz-adv-x="1546" d="M186 486v455q0 311 176 431q142 96 420 96q492 0 563 -366q15 -77 15 -174v-428q0 -302 -173 -424q-139 -98 -392 -98t-384 66t-178 177t-47 265zM388 455q0 -187 98 -251t295.5 -64t287.5 63.5t90 251.5v523q0 188 -90.5 258t-286.5 70q-304 0 -369 -168 q-25 -64 -25 -160v-523zM487 1631l216 266h150l206 -266h-156l-124 174l-132 -174h-160z" />
<glyph unicode="&#xd5;" horiz-adv-x="1546" d="M186 486v455q0 311 176 431q142 96 420 96q492 0 563 -366q15 -77 15 -174v-428q0 -302 -173 -424q-139 -98 -392 -98t-384 66t-178 177t-47 265zM388 455q0 -187 98 -251t295.5 -64t287.5 63.5t90 251.5v523q0 188 -90.5 258t-286.5 70q-304 0 -369 -168 q-25 -64 -25 -160v-523zM477 1860h97q0 -93 74 -93q36 0 91 53.5t146.5 53.5t138 -54t46.5 -175h-97q0 93 -74 93q-36 0 -91 -53.5t-146.5 -53.5t-138 54t-46.5 175z" />
<glyph unicode="&#xd6;" horiz-adv-x="1546" d="M186 486v455q0 311 176 431q142 96 420 96q492 0 563 -366q15 -77 15 -174v-428q0 -302 -173 -424q-139 -98 -392 -98t-384 66t-178 177t-47 265zM388 455q0 -187 98 -251t295.5 -64t287.5 63.5t90 251.5v523q0 188 -90.5 258t-286.5 70q-304 0 -369 -168 q-25 -64 -25 -160v-523zM418 1631v181h206v-181h-206zM921 1631v181h206v-181h-206z" />
<glyph unicode="&#xd7;" horiz-adv-x="973" d="M129 344l237 232l-237 230l110 131l248 -243l248 243l109 -131l-236 -230l236 -232l-109 -128l-248 242l-248 -242z" />
<glyph unicode="&#xd8;" horiz-adv-x="1546" d="M186 486v455q0 311 176 431q142 96 420 96q104 0 189 -16l83 224l104 -38l-80 -216q221 -84 267 -320q15 -77 15 -174v-428q0 -302 -173 -424q-139 -98 -392 -98q-141 0 -244 21l-72 -194l-103 38l69 186q-157 63 -212 192q-47 111 -47 265zM388 455q0 -199 117 -262 l409 1103q-58 10 -132 10q-304 0 -369 -168q-25 -64 -25 -160v-523zM609 156q74 -16 173 -16q197 0 287 63.5t90 251.5v523q0 188 -90 258q-21 17 -49 29z" />
<glyph unicode="&#xd9;" horiz-adv-x="1538" d="M200 473v973h202v-994q0 -272 260 -306q51 -6 126 -6q154 0 251 60t97 252v994h202v-973q0 -281 -166 -399q-136 -96 -396 -96q-386 0 -508 204q-68 114 -68 291zM459 1972h225l138 -341h-106z" />
<glyph unicode="&#xda;" horiz-adv-x="1538" d="M200 473v973h202v-994q0 -272 260 -306q51 -6 126 -6q154 0 251 60t97 252v994h202v-973q0 -281 -166 -399q-136 -96 -396 -96q-386 0 -508 204q-68 114 -68 291zM716 1631l120 341h225l-239 -341h-106z" />
<glyph unicode="&#xdb;" horiz-adv-x="1538" d="M200 473v973h202v-994q0 -272 260 -306q51 -6 126 -6q154 0 251 60t97 252v994h202v-973q0 -281 -166 -399q-136 -96 -396 -96q-386 0 -508 204q-68 114 -68 291zM483 1631l216 266h150l206 -266h-156l-124 174l-132 -174h-160z" />
<glyph unicode="&#xdc;" horiz-adv-x="1538" d="M200 473v973h202v-994q0 -272 260 -306q51 -6 126 -6q154 0 251 60t97 252v994h202v-973q0 -281 -166 -399q-136 -96 -396 -96q-386 0 -508 204q-68 114 -68 291zM414 1631v181h206v-181h-206zM917 1631v181h206v-181h-206z" />
<glyph unicode="&#xdd;" horiz-adv-x="1318" d="M48 1446h213l400 -702l402 702h207l-509 -878v-568h-201v568zM606 1631l120 341h225l-239 -341h-106z" />
<glyph unicode="&#xde;" horiz-adv-x="1320" d="M212 0v1446h202v-238h374q300 0 376 -228q28 -86 28 -210q0 -249 -106.5 -344t-298.5 -95h-373v-331h-202zM414 484h377q126 0 162.5 76.5t36.5 162.5t-3 122q-8 99 -51 154.5t-142 55.5h-380v-571z" />
<glyph unicode="&#xdf;" horiz-adv-x="1281" d="M190 0v1103q0 247 189 332q107 48 292.5 48t285.5 -91.5t100 -256.5q0 -116 -36.5 -175t-118.5 -82q93 -39 123 -58q141 -90 141 -347t-159 -365t-471 -108l-18 148q193 14 267 35q206 59 206 288q0 143 -51 204.5t-134.5 78t-205.5 16.5v142q159 0 214 52.5t55 135.5 q0 148 -58.5 190t-143.5 42t-128 -7.5t-82 -27.5q-79 -41 -79 -166v-1131h-188z" />
<glyph unicode="&#xe0;" horiz-adv-x="1172" d="M132 283q0 74 31 123q63 100 376 191q181 50 208.5 86t30.5 56.5t3 65.5t-36.5 88t-158.5 43q-172 0 -211 -66q-20 -34 -20 -92v-47h-181v48q0 155 103.5 228t309.5 73t294 -93.5t88 -266.5v-452q0 -83 21 -107.5t90 -24.5l-22 -144h-38q-100 0 -149 38.5t-75 119.5 q-83 -124 -200 -156q-56 -16 -125 -16q-161 0 -250 87.5t-89 217.5zM296 1584h225l138 -341h-106zM314 270.5q0 -74.5 50.5 -112.5t122 -38t129.5 18.5t104.5 55t60.5 83.5v306q-73 -73 -215.5 -114.5t-197 -82.5t-54.5 -115.5z" />
<glyph unicode="&#xe1;" horiz-adv-x="1172" d="M132 283q0 74 31 123q63 100 376 191q181 50 208.5 86t30.5 56.5t3 65.5t-36.5 88t-158.5 43q-172 0 -211 -66q-20 -34 -20 -92v-47h-181v48q0 155 103.5 228t309.5 73t294 -93.5t88 -266.5v-452q0 -83 21 -107.5t90 -24.5l-22 -144h-38q-100 0 -149 38.5t-75 119.5 q-83 -124 -200 -156q-56 -16 -125 -16q-161 0 -250 87.5t-89 217.5zM314 270.5q0 -74.5 50.5 -112.5t122 -38t129.5 18.5t104.5 55t60.5 83.5v306q-73 -73 -215.5 -114.5t-197 -82.5t-54.5 -115.5zM553 1243l120 341h225l-239 -341h-106z" />
<glyph unicode="&#xe2;" horiz-adv-x="1172" d="M132 283q0 74 31 123q63 100 376 191q181 50 208.5 86t30.5 56.5t3 65.5t-36.5 88t-158.5 43q-172 0 -211 -66q-20 -34 -20 -92v-47h-181v48q0 155 103.5 228t309.5 73t294 -93.5t88 -266.5v-452q0 -83 21 -107.5t90 -24.5l-22 -144h-38q-100 0 -149 38.5t-75 119.5 q-83 -124 -200 -156q-56 -16 -125 -16q-161 0 -250 87.5t-89 217.5zM314 270.5q0 -74.5 50.5 -112.5t122 -38t129.5 18.5t104.5 55t60.5 83.5v306q-73 -73 -215.5 -114.5t-197 -82.5t-54.5 -115.5zM320 1243l216 266h150l206 -266h-156l-124 174l-132 -174h-160z" />
<glyph unicode="&#xe3;" horiz-adv-x="1172" d="M132 283q0 74 31 123q63 100 376 191q181 50 208.5 86t30.5 56.5t3 65.5t-36.5 88t-158.5 43q-172 0 -211 -66q-20 -34 -20 -92v-47h-181v48q0 155 103.5 228t309.5 73t294 -93.5t88 -266.5v-452q0 -83 21 -107.5t90 -24.5l-22 -144h-38q-100 0 -149 38.5t-75 119.5 q-83 -124 -200 -156q-56 -16 -125 -16q-161 0 -250 87.5t-89 217.5zM309 1472h97q0 -93 74 -93q36 0 91 53.5t146.5 53.5t138 -54t46.5 -175h-97q0 93 -74 93q-36 0 -91 -53.5t-146.5 -53.5t-138 54t-46.5 175zM314 270.5q0 -74.5 50.5 -112.5t122 -38t129.5 18.5t104.5 55 t60.5 83.5v306q-73 -73 -215.5 -114.5t-197 -82.5t-54.5 -115.5z" />
<glyph unicode="&#xe4;" horiz-adv-x="1172" d="M132 283q0 74 31 123q63 100 376 191q181 50 208.5 86t30.5 56.5t3 65.5t-36.5 88t-158.5 43q-172 0 -211 -66q-20 -34 -20 -92v-47h-181v48q0 155 103.5 228t309.5 73t294 -93.5t88 -266.5v-452q0 -83 21 -107.5t90 -24.5l-22 -144h-38q-100 0 -149 38.5t-75 119.5 q-83 -124 -200 -156q-56 -16 -125 -16q-161 0 -250 87.5t-89 217.5zM252 1243v181h206v-181h-206zM314 270.5q0 -74.5 50.5 -112.5t122 -38t129.5 18.5t104.5 55t60.5 83.5v306q-73 -73 -215.5 -114.5t-197 -82.5t-54.5 -115.5zM755 1243v181h206v-181h-206z" />
<glyph unicode="&#xe5;" horiz-adv-x="1172" d="M132 283q0 74 31 123q63 100 376 191q181 50 208.5 86t30.5 56.5t3 65.5t-36.5 88t-158.5 43q-172 0 -211 -66q-20 -34 -20 -92v-47h-181v48q0 155 103.5 228t309.5 73t294 -93.5t88 -266.5v-452q0 -83 21 -107.5t90 -24.5l-22 -144h-38q-100 0 -149 38.5t-75 119.5 q-83 -124 -200 -156q-56 -16 -125 -16q-161 0 -250 87.5t-89 217.5zM314 270.5q0 -74.5 50.5 -112.5t122 -38t129.5 18.5t104.5 55t60.5 83.5v306q-73 -73 -215.5 -114.5t-197 -82.5t-54.5 -115.5zM412 1421q0 87 56 132.5t138 45.5t138 -45.5t56 -132.5t-56 -132.5 t-138 -45.5t-138 45.5t-56 132.5zM497 1422q0 -114 109 -114t109 113t-109 113q-48 0 -78.5 -26t-30.5 -86z" />
<glyph unicode="&#xe6;" horiz-adv-x="1741" d="M131 296.5q0 143.5 97.5 211.5t277.5 96q179 28 219 40q60 16 60 115q0 181 -184.5 181t-223.5 -84q-24 -50 -24 -111v-27h-181v28q0 159 106 246.5t312 87.5q109 0 189.5 -36t107.5 -105q89 141 301.5 141t316.5 -84t104 -238v-247h-636v-183q0 -106 53 -156.5 t163 -50.5t136.5 10t42.5 20q57 36 65 167h170q-16 -193 -105.5 -265.5t-308.5 -72.5q-135 0 -205.5 46t-105.5 132q-147 -178 -409 -178q-161 0 -249.5 86.5t-88.5 230zM312 267.5q0 -41.5 24 -80.5q46 -74 168 -74q122 -1 219 75q48 38 62 85v274q-55 -33 -161 -51 t-146.5 -29.5t-68 -26.5t-47 -32t-30 -37.5t-15.5 -41t-5 -62zM973 633h464v145q0 90 -61 125t-178 35t-171 -41t-54 -137v-127z" />
<glyph unicode="&#xe7;" horiz-adv-x="1110" d="M148 344v404q0 151 115 241.5t311 90.5q250 0 344 -108q74 -84 74 -248l-179 -17q0 142 -50.5 185.5t-179.5 43.5t-188 -45t-59 -148v-415q0 -110 62 -158t191.5 -48t173 34t53.5 154h174q-16 -184 -106 -258t-305 -74q-325 0 -407 226q-24 64 -24 140zM460 -388 q36 -7 88 -7t87.5 28.5t35.5 74t-44.5 86t-115.5 42.5v158h62l6 -94q105 -19 163 -78.5t58 -133t-65 -127t-182 -53.5q-48 0 -93 8v96z" />
<glyph unicode="&#xe8;" horiz-adv-x="1158" d="M148 374v369q0 157 107 247t323.5 90t322 -83.5t105.5 -238.5v-252h-670v-149q0 -132 53 -183.5t191 -51.5t156 6t37 14t26.5 19t20 33.5t18.5 87.5h166q-10 -95 -33.5 -153t-74 -92.5t-121 -46.5t-186.5 -12q-233 0 -337 97t-104 299zM267 1584h225l138 -341h-106z M336 633h488v145q0 90 -61.5 124t-180.5 34t-182.5 -41t-63.5 -135v-127z" />
<glyph unicode="&#xe9;" horiz-adv-x="1158" d="M148 374v369q0 157 107 247t323.5 90t322 -83.5t105.5 -238.5v-252h-670v-149q0 -132 53 -183.5t191 -51.5t156 6t37 14t26.5 19t20 33.5t18.5 87.5h166q-10 -95 -33.5 -153t-74 -92.5t-121 -46.5t-186.5 -12q-233 0 -337 97t-104 299zM336 633h488v145q0 90 -61.5 124 t-180.5 34t-182.5 -41t-63.5 -135v-127zM524 1243l120 341h225l-239 -341h-106z" />
<glyph unicode="&#xea;" horiz-adv-x="1158" d="M148 374v369q0 157 107 247t323.5 90t322 -83.5t105.5 -238.5v-252h-670v-149q0 -132 53 -183.5t191 -51.5t156 6t37 14t26.5 19t20 33.5t18.5 87.5h166q-10 -95 -33.5 -153t-74 -92.5t-121 -46.5t-186.5 -12q-233 0 -337 97t-104 299zM291 1243l216 266h150l206 -266 h-156l-124 174l-132 -174h-160zM336 633h488v145q0 90 -61.5 124t-180.5 34t-182.5 -41t-63.5 -135v-127z" />
<glyph unicode="&#xeb;" horiz-adv-x="1158" d="M148 374v369q0 157 107 247t323.5 90t322 -83.5t105.5 -238.5v-252h-670v-149q0 -132 53 -183.5t191 -51.5t156 6t37 14t26.5 19t20 33.5t18.5 87.5h166q-10 -95 -33.5 -153t-74 -92.5t-121 -46.5t-186.5 -12q-233 0 -337 97t-104 299zM222 1243v181h206v-181h-206z M336 633h488v145q0 90 -61.5 124t-180.5 34t-182.5 -41t-63.5 -135v-127zM725 1243v181h206v-181h-206z" />
<glyph unicode="&#xec;" horiz-adv-x="596" d="M-10 1584h225l138 -341h-106zM206 0v1060h188v-1060h-188z" />
<glyph unicode="&#xed;" horiz-adv-x="596" d="M206 0v1060h188v-1060h-188zM247 1243l120 341h225l-239 -341h-106z" />
<glyph unicode="&#xee;" horiz-adv-x="596" d="M14 1243l216 266h150l206 -266h-156l-124 174l-132 -174h-160zM206 0v1060h188v-1060h-188z" />
<glyph unicode="&#xef;" horiz-adv-x="596" d="M-54 1243v181h206v-181h-206zM206 0v1060h188v-1060h-188zM449 1243v181h206v-181h-206z" />
<glyph unicode="&#xf0;" horiz-adv-x="1158" d="M150 314v332q0 150 119.5 239.5t317.5 89.5q48 0 111 -18t84 -36q-38 176 -176 299l-215 -142l-68 84l191 126q-104 67 -271 119l74 108q188 -40 329 -140l148 98l69 -84l-130 -86q277 -262 277 -767v-171q0 -155 -46 -234q-88 -151 -377 -151q-226 0 -331.5 89 t-105.5 245zM337 308q0 -101 65.5 -144t197 -43t177.5 50q46 49 50 133q1 20 1 55v234q0 64 -23 190q-30 21 -99 35.5t-119 14.5q-250 0 -250 -181v-344z" />
<glyph unicode="&#xf1;" horiz-adv-x="1226" d="M186 0v1060h188v-103q106 123 314 123q270 0 342 -190q20 -54 20 -120v-770h-188v781q0 155 -237 155q-117 0 -184 -50t-67 -131v-755h-188zM321 1472h97q0 -93 74 -93q36 0 91 53.5t146.5 53.5t138 -54t46.5 -175h-97q0 93 -74 93q-36 0 -91 -53.5t-146.5 -53.5t-138 54 t-46.5 175z" />
<glyph unicode="&#xf2;" horiz-adv-x="1174" d="M148 315v427q0 157 105.5 247.5t332.5 90.5t333.5 -91t106.5 -247v-427q0 -156 -106.5 -246.5t-333.5 -90.5t-332.5 90t-105.5 247zM277 1584h225l138 -341h-106zM336 299q0 -177 251 -177t251 177v459q0 178 -251 178t-251 -178v-459z" />
<glyph unicode="&#xf3;" horiz-adv-x="1174" d="M148 315v427q0 157 105.5 247.5t332.5 90.5t333.5 -91t106.5 -247v-427q0 -156 -106.5 -246.5t-333.5 -90.5t-332.5 90t-105.5 247zM336 299q0 -177 251 -177t251 177v459q0 178 -251 178t-251 -178v-459zM534 1243l120 341h225l-239 -341h-106z" />
<glyph unicode="&#xf4;" horiz-adv-x="1174" d="M148 315v427q0 157 105.5 247.5t332.5 90.5t333.5 -91t106.5 -247v-427q0 -156 -106.5 -246.5t-333.5 -90.5t-332.5 90t-105.5 247zM301 1243l216 266h150l206 -266h-156l-124 174l-132 -174h-160zM336 299q0 -177 251 -177t251 177v459q0 178 -251 178t-251 -178v-459z " />
<glyph unicode="&#xf5;" horiz-adv-x="1174" d="M148 315v427q0 157 105.5 247.5t332.5 90.5t333.5 -91t106.5 -247v-427q0 -156 -106.5 -246.5t-333.5 -90.5t-332.5 90t-105.5 247zM291 1472h97q0 -93 74 -93q36 0 91 53.5t146.5 53.5t138 -54t46.5 -175h-97q0 93 -74 93q-36 0 -91 -53.5t-146.5 -53.5t-138 54 t-46.5 175zM336 299q0 -177 251 -177t251 177v459q0 178 -251 178t-251 -178v-459z" />
<glyph unicode="&#xf6;" horiz-adv-x="1174" d="M148 315v427q0 157 105.5 247.5t332.5 90.5t333.5 -91t106.5 -247v-427q0 -156 -106.5 -246.5t-333.5 -90.5t-332.5 90t-105.5 247zM232 1243v181h206v-181h-206zM336 299q0 -177 251 -177t251 177v459q0 178 -251 178t-251 -178v-459zM735 1243v181h206v-181h-206z" />
<glyph unicode="&#xf7;" horiz-adv-x="1025" d="M100 472v137h825v-137h-825zM413 90v209h205v-209h-205zM413 787v209h205v-209h-205z" />
<glyph unicode="&#xf8;" horiz-adv-x="1174" d="M148 315v427q0 157 105.5 247.5t332.5 90.5q87 0 156 -13l69 184l90 -31l-67 -180q50 -20 86 -51q106 -91 106 -247v-427q0 -156 -106.5 -246.5t-333.5 -90.5q-79 0 -143 11l-80 -215l-92 31l78 208q-55 21 -95 55q-106 90 -106 247zM336 299q0 -92 68 -137l286 764 q-45 10 -103 10q-251 0 -251 -178v-459zM495 129q41 -7 92 -7q251 0 251 177v459q0 87 -60 131z" />
<glyph unicode="&#xf9;" horiz-adv-x="1224" d="M176 290v770h188v-771q0 -78 57.5 -122.5t171.5 -44.5t185.5 56.5t71.5 130.5v751h188v-1060h-168l-20 133q-88 -155 -309 -155q-271 0 -344 192q-21 55 -21 120zM297 1584h225l138 -341h-106z" />
<glyph unicode="&#xfa;" horiz-adv-x="1224" d="M176 290v770h188v-771q0 -78 57.5 -122.5t171.5 -44.5t185.5 56.5t71.5 130.5v751h188v-1060h-168l-20 133q-88 -155 -309 -155q-271 0 -344 192q-21 55 -21 120zM554 1243l120 341h225l-239 -341h-106z" />
<glyph unicode="&#xfb;" horiz-adv-x="1224" d="M176 290v770h188v-771q0 -78 57.5 -122.5t171.5 -44.5t185.5 56.5t71.5 130.5v751h188v-1060h-168l-20 133q-88 -155 -309 -155q-271 0 -344 192q-21 55 -21 120zM321 1243l216 266h150l206 -266h-156l-124 174l-132 -174h-160z" />
<glyph unicode="&#xfc;" horiz-adv-x="1224" d="M176 290v770h188v-771q0 -78 57.5 -122.5t171.5 -44.5t185.5 56.5t71.5 130.5v751h188v-1060h-168l-20 133q-88 -155 -309 -155q-271 0 -344 192q-21 55 -21 120zM252 1243v181h206v-181h-206zM755 1243v181h206v-181h-206z" />
<glyph unicode="&#xfd;" horiz-adv-x="1118" d="M76 1060h199l324 -844l271 844h190l-348 -1015q-69 -201 -124.5 -278.5t-106.5 -108.5q-105 -64 -283 -64v147q124 0 200.5 61t114.5 202zM515 1243l120 341h225l-239 -341h-106z" />
<glyph unicode="&#xfe;" horiz-adv-x="1194" d="M177 -408l2 1914h186v-512q47 35 121 58.5t153 23.5q197 0 301 -94.5t104 -252.5v-385q0 -164 -113.5 -266t-315.5 -102q-136 0 -250 58v-442h-188zM365 179q110 -62 230.5 -62t190.5 55.5t70 151.5v418q0 92 -69 142t-166.5 50t-166 -39.5t-89.5 -70.5v-645z" />
<glyph unicode="&#xff;" horiz-adv-x="1118" d="M76 1060h199l324 -844l271 844h190l-348 -1015q-69 -201 -124.5 -278.5t-106.5 -108.5q-105 -64 -283 -64v147q124 0 200.5 61t114.5 202zM214 1243v181h206v-181h-206zM717 1243v181h206v-181h-206z" />
<glyph unicode="&#x152;" horiz-adv-x="1557" d="M184 510v408q0 311 174 431q140 97 418 97h615v-150h-414v-482h353v-150h-353v-514h423v-150h-624q-403 0 -523 201q-70 116 -69 309zM386 479q0 -183 92 -256t288 -73h10v1145h-11q-192 0 -285.5 -78t-93.5 -262v-476z" />
<glyph unicode="&#x153;" horiz-adv-x="1734" d="M150 317v430q0 152 112 242.5t317.5 90.5t303.5 -130q92 130 305 130t314.5 -84t101.5 -238v-252h-625v-178q0 -106 54 -156.5t143 -50.5t128 7q38 8 68 30q51 38 61 173h170q-16 -196 -103 -273.5t-300 -77.5t-317 142q-98 -142 -314 -142q-419 0 -419 337zM338 301 q0 -95 58.5 -137.5t172.5 -42.5q222 0 222 180v462q0 92 -55.5 133.5t-166.5 41.5t-171 -40.5t-60 -134.5v-462zM979 633h443v145q0 91 -54 125.5t-169.5 34.5t-167.5 -40.5t-52 -137.5v-127z" />
<glyph unicode="&#x178;" horiz-adv-x="1318" d="M48 1446h213l400 -702l402 702h207l-509 -878v-568h-201v568zM304 1631v181h206v-181h-206zM807 1631v181h206v-181h-206z" />
<glyph unicode="&#x2c6;" horiz-adv-x="512" d="M-30 1240l216 266h150l206 -266h-156l-124 174l-132 -174h-160z" />
<glyph unicode="&#x2dc;" horiz-adv-x="512" d="M-41 1492h97q0 -93 74 -93q36 0 91 53.5t146.5 53.5t138 -54t46.5 -175h-97q0 93 -74 93q-36 0 -91 -53.5t-146.5 -53.5t-138 54t-46.5 175z" />
<glyph unicode="&#x2000;" horiz-adv-x="986" />
<glyph unicode="&#x2001;" horiz-adv-x="1972" />
<glyph unicode="&#x2002;" horiz-adv-x="986" />
<glyph unicode="&#x2003;" horiz-adv-x="1972" />
<glyph unicode="&#x2004;" horiz-adv-x="657" />
<glyph unicode="&#x2005;" horiz-adv-x="493" />
<glyph unicode="&#x2006;" horiz-adv-x="328" />
<glyph unicode="&#x2007;" horiz-adv-x="328" />
<glyph unicode="&#x2008;" horiz-adv-x="246" />
<glyph unicode="&#x2009;" horiz-adv-x="394" />
<glyph unicode="&#x200a;" horiz-adv-x="109" />
<glyph unicode="&#x2010;" horiz-adv-x="1024" d="M162 494v148h700v-148h-700z" />
<glyph unicode="&#x2011;" horiz-adv-x="1024" d="M162 494v148h700v-148h-700z" />
<glyph unicode="&#x2012;" horiz-adv-x="1024" d="M162 494v148h700v-148h-700z" />
<glyph unicode="&#x2013;" horiz-adv-x="539" d="M2 606v126h533v-126h-533z" />
<glyph unicode="&#x2014;" horiz-adv-x="1101" d="M2 402v146h1096v-146h-1096z" />
<glyph unicode="&#x2018;" horiz-adv-x="769" d="M256 897v183q0 173 120 330q26 34 52 58l81 -44q-98 -118 -124 -202q-14 -46 -13 -92h141v-233h-257z" />
<glyph unicode="&#x2019;" horiz-adv-x="769" d="M256 1235v233h257v-183q0 -173 -120 -330q-26 -34 -52 -58l-81 44q98 118 124 202q14 46 13 92h-141z" />
<glyph unicode="&#x201a;" horiz-adv-x="769" d="M256 0v233h257v-183q0 -173 -120 -330q-26 -34 -52 -58l-81 44q98 118 124 202q14 46 13 92h-141z" />
<glyph unicode="&#x201c;" horiz-adv-x="1181" d="M256 897v183q0 173 120 330q26 34 52 58l81 -44q-98 -118 -124 -202q-14 -46 -13 -92h141v-233h-257zM668 897v183q0 173 120 330q26 34 52 58l81 -44q-98 -118 -124 -202q-14 -46 -13 -92h141v-233h-257z" />
<glyph unicode="&#x201d;" horiz-adv-x="1181" d="M256 1235v233h257v-183q0 -173 -120 -330q-26 -34 -52 -58l-81 44q98 118 124 202q14 46 13 92h-141zM668 1235v233h257v-183q0 -173 -120 -330q-26 -34 -52 -58l-81 44q98 118 124 202q14 46 13 92h-141z" />
<glyph unicode="&#x201e;" horiz-adv-x="1181" d="M256 0v233h257v-183q0 -173 -120 -330q-26 -34 -52 -58l-81 44q98 118 124 202q14 46 13 92h-141zM668 0v233h257v-183q0 -173 -120 -330q-26 -34 -52 -58l-81 44q98 118 124 202q14 46 13 92h-141z" />
<glyph unicode="&#x2022;" horiz-adv-x="975" d="M180 599q0 152 71.5 227t236 75t236 -75t71.5 -226.5t-72 -226.5t-236.5 -75t-235.5 74.5t-71 226.5z" />
<glyph unicode="&#x2026;" horiz-adv-x="1884" d="M186 0v242h256v-242h-256zM814 0v242h256v-242h-256zM1442 0v242h256v-242h-256z" />
<glyph unicode="&#x202f;" horiz-adv-x="394" />
<glyph unicode="&#x2039;" horiz-adv-x="768" d="M174 530l273 450l147 -70l-207 -380l207 -380l-140 -70z" />
<glyph unicode="&#x203a;" horiz-adv-x="768" d="M180 150l207 380l-207 380l140 70l280 -450l-273 -450z" />
<glyph unicode="&#x205f;" horiz-adv-x="493" />
<glyph unicode="&#x20ac;" horiz-adv-x="1460" d="M1 505v134h181v180h-181v134h181q3 306 164 418q139 97 404.5 97t385.5 -73.5t150 -230.5q14 -70 14 -167l-191 -17q0 146 -25 197.5t-49.5 73.5t-80.5 38.5t-175 16.5t-187 -16q-68 -15 -116 -52q-92 -71 -92 -261v-24h359v-134h-359v-180h359v-134h-359v-50 q0 -188 93 -251.5t296.5 -63.5t259.5 48t69 140q7 50 7 120h191q0 -218 -63 -306q-116 -164 -441 -164q-273 0 -400.5 65.5t-170.5 176t-43 266.5v19h-181z" />
<glyph unicode="&#x2122;" horiz-adv-x="1843" d="M133 1332v114h559v-114h-212v-566h-135v566h-212zM845 766v680h198l184 -413l186 413h196v-680h-127v563l-172 -398h-161l-179 398v-563h-125z" />
<glyph unicode="&#xe000;" horiz-adv-x="1060" d="M0 0v1060h1060v-1060h-1060z" />
<glyph unicode="&#xfb03;" horiz-adv-x="2176" d="M110 918v142h177v161q0 147 80.5 215.5t245.5 68.5h119l12 -133h-116q-153 0 -153 -133v-179h602v161q0 147 80.5 215.5t245.5 68.5h119l12 -133h-116q-153 0 -153 -133v-179h709v-1060h-188v918h-521v-918h-188v918h-602v-918h-188v918h-177zM1786 1251v195h188v-195 h-188z" />
<glyph unicode="&#xfb04;" horiz-adv-x="2225" d="M110 918v142h177v161q0 147 80.5 215.5t245.5 68.5h119l12 -133h-116q-153 0 -153 -133v-179h551v161q0 147 80.5 215.5t245.5 68.5h555v-1149q0 -128 38 -167t157 -39h33l-22 -158h-54q-93 0 -152 14t-104 53q-84 73 -84 299v1014h-352q-153 0 -153 -133v-179h257v-142 h-257v-918h-188v918h-551v-918h-188v918h-177z" />
</font>
</defs>
</svg>
