<?xml version="1.0" standalone="no"?>
<!DOCTYPE svg PUBLIC "-//W3C//DTD SVG 1.1//EN" "http://www.w3.org/Graphics/SVG/1.1/DTD/svg11.dtd" >
<svg xmlns="http://www.w3.org/2000/svg">
<metadata></metadata>
<defs>
<font id="alegreyaregular" horiz-adv-x="1036" >
<font-face units-per-em="2048" ascent="1638" descent="-410" />
<missing-glyph horiz-adv-x="413" />
<glyph unicode="&#xfb01;" horiz-adv-x="1202" d="M84 842l14 69l123 23q0 135 35 243.5t101.5 184.5t160.5 117t211 41q72 0 131.5 -15.5t140.5 -54.5l5 -18q-10 -20 -21 -43q-10 -20 -21.5 -49t-21.5 -62l-22 -6q-37 35 -82 63q-39 23 -91.5 43.5t-113.5 20.5q-258 0 -260 -379l-2 -94q186 0 297.5 1t177 3t99.5 7t69 13 l10 -24q-10 -23 -18.5 -93.5t-14.5 -171t-10 -221.5t-4 -239q0 -61 16.5 -88t55.5 -27h22t23 2q12 0 26 2l4 -8l-16 -88q-31 0 -64 2q-29 2 -59.5 3t-58.5 1q-33 0 -70 -4t-68 -8q-37 -6 -73 -13l8 84q37 10 59.5 22.5t34.5 34t16.5 57.5t4.5 93v447q0 35 -5.5 56.5 t-20.5 33.5t-43 16t-73 4h-327q0 -156 -4.5 -311.5t-4.5 -310.5q0 -113 101 -113h92q20 0 35 2l4 -8l-14 -86q-49 0 -97 2q-41 0 -85 1t-72 1q-43 0 -84 -1t-74 -3q-37 -2 -72 -4l10 80q35 4 57.5 14t36 31.5t18.5 55.5t5 87v481q-4 49 -29.5 66.5t-99.5 21.5z" />
<glyph unicode="&#xfb02;" horiz-adv-x="1175" d="M84 842l14 69l123 23v8q0 133 33 239.5t93.5 182.5t145.5 116t191 40q51 0 103.5 -9.5t99.5 -25.5q63 12 108 22q23 6 43 13l13 -27q-8 -12 -14.5 -69.5t-13.5 -150.5t-12 -216t-9.5 -262.5t-6.5 -291t-2 -302.5q0 -61 16.5 -88t55.5 -27h22.5t22.5 2q12 0 27 2l4 -8 l-17 -88q-31 0 -63 2q-29 2 -59.5 3t-59.5 1q-33 0 -69.5 -4t-67.5 -8q-37 -6 -74 -13l8 84q61 16 88 48t27 86v1089l-2 29q-49 39 -121 63.5t-131 24.5q-225 0 -227 -379l-2 -100h104t92 2q47 2 86 4l6 -6l-20 -109q-39 0 -82 2q-37 2 -86 3t-102 1l-9 -616 q0 -113 105 -113h49.5t38.5 2q20 0 35 2l4 -8l-14 -88q-49 0 -97 2q-41 0 -85 1t-72 1q-43 0 -84 -1t-74 -3q-37 -2 -72 -4l10 80q117 14 117 121v552q-2 25 -8 40.5t-19.5 24.5t-38 13t-63.5 6z" />
<glyph horiz-adv-x="2048" />
<glyph horiz-adv-x="2048" />
<glyph unicode="&#xd;" horiz-adv-x="413" />
<glyph unicode=" "  horiz-adv-x="413" />
<glyph unicode="&#x09;" horiz-adv-x="413" />
<glyph unicode="&#xa0;" horiz-adv-x="413" />
<glyph unicode="!" horiz-adv-x="583" d="M125 92q0 53 34 90t93 37q57 0 87 -34.5t30 -82.5q0 -53 -35 -90t-94 -37t-87 36t-28 81zM201 1364l14 20l170 37l18 -22l-106 -971l-57 -14l-23 16z" />
<glyph unicode="&#x22;" horiz-adv-x="610" d="M121 1300l143 29l15 -16q-10 -68 -21 -139q-10 -61 -22.5 -139.5t-28.5 -155.5l-51 -29l-23 4q4 86 2 165t-6 142q-4 74 -8 139zM371 1300l143 29l14 -16q-10 -68 -20 -139q-10 -61 -22.5 -139.5t-28.5 -155.5l-51 -29l-23 4q4 86 2 165t-6 142q-4 74 -8 139z" />
<glyph unicode="#" horiz-adv-x="1019" d="M23 446l30 76l223 -2l27 117l25 106l-224 -2l-6 21l31 76l219 -2l76 327l82 11l16 -13l-80 -327h109l108 -3l76 332l82 11l17 -13l-80 -330h221l8 -18l-39 -74l-213 2l-18 -79l-33 -146h219l8 -18l-39 -74l-209 2l-73 -338l-80 -16l-14 12l75 344l-143 2l-74 -2l-76 -340 l-79 -16l-15 12l76 344l-227 -2zM369 518h106l113 -2l26 121l25 106l-139 2l-78 -2l-21 -81z" />
<glyph unicode="$" horiz-adv-x="940" d="M109 55q4 37 10 82q4 39 8 89t4 106l92 8q0 -74 7.5 -123t26.5 -77.5t52 -43t84 -16.5l35 358q-20 8 -29 15q-51 25 -100 51t-87 60t-61.5 76t-23.5 95q0 61 26.5 113.5t73.5 92.5t113 64.5t143 30.5l29 303l53 9l13 -19l-29 -291q53 -2 98 -8t78 -12q37 -8 68 -19l8 -14 q-8 -37 -17 -80q-6 -37 -12 -87t-10 -103l-80 -8l-12 8q0 10 2 20q0 10 1 23.5t1 29.5q0 68 -30 101t-105 41l-33 -340q2 -2 6 -2q53 -25 108.5 -52.5t99.5 -62.5t71.5 -78t27.5 -100q0 -63 -26.5 -117.5t-75.5 -95.5t-118 -66.5t-150 -31.5l-27 -293l-53 -6l-11 14l27 283 q-59 0 -108.5 9t-83.5 19q-41 12 -74 27zM285 791q0 -55 46 -95.5t113 -74.5l29 311q-82 -4 -135 -43t-53 -98zM459 80q86 6 139 48t53 110q0 57 -47 96t-115 74z" />
<glyph unicode="%" horiz-adv-x="1374" d="M72 987q0 74 22.5 136.5t63.5 108.5t98 71.5t125 25.5q72 0 123 -26.5t85 -69.5t50 -98.5t16 -110.5q0 -70 -20.5 -134.5t-59 -113.5t-96 -78.5t-131.5 -29.5q-66 0 -117 23.5t-86.5 66.5t-54 101.5t-18.5 127.5zM147 -131q78 119 158 240q68 104 145.5 225t147.5 229 l524 826l80 -39l10 -29q-102 -154 -200 -301q-43 -63 -88 -132t-89 -136.5t-85 -132t-74 -117.5q-70 -113 -146.5 -234t-142.5 -225q-78 -121 -151 -238l-78 39zM168 1016q0 -59 18.5 -100.5t49 -67t67.5 -37.5t74 -12q27 0 59.5 7t59 26.5t45 54.5t18.5 90q0 92 -55 154.5 t-158 62.5q-84 0 -131 -50t-47 -128zM766 295q0 74 22.5 136.5t63.5 108.5t98.5 71.5t124.5 25.5q72 0 123 -26.5t85 -69.5t50.5 -98.5t16.5 -110.5q0 -70 -20.5 -134.5t-59.5 -113.5t-96.5 -79t-131.5 -30q-66 0 -117 24t-86.5 67t-54 101t-18.5 128zM862 324 q0 -59 18.5 -100.5t49.5 -67t67.5 -38t73.5 -12.5q27 0 59.5 7.5t59.5 27t45 54t18 90.5q0 92 -55 154.5t-158 62.5q-84 0 -131 -50.5t-47 -127.5z" />
<glyph unicode="&#x26;" horiz-adv-x="1433" d="M113 328q0 88 42 152.5t93 105.5q59 49 135 82v14q-86 92 -127 170t-41 152q0 70 30.5 129t86 103t130.5 68.5t161 24.5q55 0 101 -7t79 -17q37 -10 67 -23l4 -31l-98 -151l-20 -2q-72 66 -116 88t-101 22q-84 0 -132.5 -42t-48.5 -113q0 -51 14.5 -96.5t49.5 -95.5 t95.5 -108.5t150.5 -136.5l327 -282q37 74 37 176q0 242 -160 242q-23 0 -43 -3.5t-36 -7.5q-20 -4 -37 -8l-29 88q12 8 29 17q14 6 34.5 12t45.5 8l421 25q51 4 82 7t47.5 5t21.5 4t7 6l21 -49l-27 -63q-6 -12 -14.5 -20.5t-23.5 -13.5t-40.5 -6t-64.5 -1h-205l-6 -13 q41 -35 63.5 -88t22.5 -112q0 -131 -82 -258l287 -242v-33q-27 -18 -52 -33q-23 -12 -44 -21t-31 -9q-18 0 -261 217q-86 -86 -194.5 -135.5t-212.5 -49.5q-203 0 -320.5 94.5t-117.5 258.5zM266 369q0 -121 93.5 -193t248.5 -72q174 0 295 105l-461 412q-80 -37 -128 -106 t-48 -146z" />
<glyph unicode="'" horiz-adv-x="360" d="M121 1300l143 29l15 -16q-10 -68 -21 -139q-10 -61 -22.5 -139.5t-28.5 -155.5l-51 -29l-23 4q4 86 2 165t-6 142q-4 74 -8 139z" />
<glyph unicode="(" horiz-adv-x="632" d="M172 334v354q0 94 16.5 171t44 139.5t61.5 111.5t71 86q84 86 192 133h8l27 -59l-2 -8q-80 -41 -141 -113q-53 -61 -96.5 -166.5t-43.5 -263.5v-354q0 -172 45 -287t101 -184q66 -82 147 -130v-10l-43 -53h-8q-109 47 -191 131q-35 37 -68.5 85t-60 109.5t-43 138.5 t-16.5 169z" />
<glyph unicode=")" horiz-adv-x="632" d="M31 1266v10l43 53h8q106 -47 188 -131q35 -37 70 -85t61.5 -109.5t43 -138.5t16.5 -169v-354q0 -94 -16.5 -172t-44 -140.5t-61.5 -110.5t-71 -85q-84 -86 -192 -133h-8l-27 59l2 9q78 41 139 112q53 61 97.5 166t44.5 264v355q0 172 -46.5 286.5t-101.5 184.5 q-66 82 -145 129z" />
<glyph unicode="*" horiz-adv-x="933" d="M139 1217q0 25 2 47q2 20 5.5 44.5t11.5 47.5l18 8q33 -18 68 -39q29 -18 65.5 -40.5t71.5 -49.5l-12 -68l-13 -10q-41 12 -78.5 23.5t-68.5 19.5q-37 8 -70 17zM186 969q27 27 58 53q27 23 59.5 50.5t69.5 51.5l59 -32l6 -15q-25 -35 -47 -66.5t-39 -60.5 q-20 -33 -37 -61q-20 8 -43 16q-18 8 -40.5 19.5t-43.5 25.5zM397 1485q23 6 45 12q20 4 44 8t49 4l14 -14q-8 -37 -17 -76q-8 -35 -18 -75.5t-25 -81.5l-69 -11l-12 9q0 41 -2.5 80.5t-4.5 72.5q-2 37 -4 72zM475 1081l49 47l17 2q23 -35 48 -66.5t46 -55.5q23 -29 45 -54 q-12 -16 -29 -34q-14 -16 -31.5 -34t-35.5 -32l-19 2q-16 35 -33 72q-14 33 -29.5 72.5t-27.5 80.5zM518 1227l2 16q41 12 79 25.5t67 25.5q35 14 65 29q12 -18 25 -39q10 -16 21 -38.5t20 -45.5l-9 -18q-39 -4 -77 -8q-35 -4 -78 -6.5t-86 -0.5z" />
<glyph unicode="+" d="M37 498l22 100q63 -2 131 -2h265l2 412l104 16l21 -12q-4 -74 -7 -148q-4 -63 -5 -135t-1 -133q61 0 134 1t137 5q74 2 147 6l12 -20l-16 -105l-414 -2v-266q0 -68 2 -131l-100 -23l-18 13v135q0 59 1 132t1 140q-68 0 -139.5 -1t-131.5 -1h-135z" />
<glyph unicode="," horiz-adv-x="487" d="M31 -270q70 47 116 114.5t46 132.5q0 43 -19.5 81t-46.5 63l4 29q20 16 52 34.5t67 18.5q43 0 73.5 -41t30.5 -119q0 -59 -27.5 -113.5t-69.5 -101.5t-93 -85t-96 -65l-37 31v21z" />
<glyph unicode="-" horiz-adv-x="663" d="M74 446l12 107l356 41q68 6 103 12l30 6l15 -18l-10 -111l-492 -53z" />
<glyph unicode="." horiz-adv-x="487" d="M123 92q0 53 33.5 90t93.5 37q57 0 87 -34.5t30 -82.5q0 -53 -35 -90t-94 -37t-87 36t-28 81z" />
<glyph unicode="/" horiz-adv-x="673" d="M70 -209q31 106 63 219q29 98 61.5 217t63.5 236l236 919h94l16 -20q-47 -170 -92 -336q-18 -72 -39.5 -148.5t-42 -153.5t-40 -149.5t-36.5 -134.5q-33 -129 -63.5 -246.5t-54.5 -211.5q-29 -111 -54 -207h-98z" />
<glyph unicode="0" horiz-adv-x="1091" d="M78 481q0 119 38 220.5t103.5 175t156.5 115.5t199 42q96 0 177.5 -35.5t139.5 -101.5t90 -157t32 -201q0 -123 -37 -225.5t-103.5 -178.5t-158 -118t-197.5 -42q-98 0 -180 37t-139.5 102.5t-89 159t-31.5 207.5zM193 512q0 -84 26.5 -154.5t73.5 -121t114.5 -78 t147.5 -27.5q76 0 139.5 25.5t109.5 71.5t70.5 110.5t24.5 142.5q0 86 -26.5 157t-75.5 122t-117 79.5t-148 28.5q-78 0 -140 -25.5t-106 -71.5t-68.5 -112.5t-24.5 -146.5z" />
<glyph unicode="1" horiz-adv-x="724" d="M72 881l8 86q37 2 74 8q33 4 71.5 10t79.5 12q76 12 117 19.5t60.5 11.5t23.5 5t6 1l12 -35q-20 -16 -33.5 -32.5t-21.5 -35t-13 -44t-7 -60.5q-4 -82 -6.5 -171t-3.5 -171t-2 -149.5t-1 -106.5q0 -82 20.5 -110.5t80.5 -28.5h36.5t34.5 2q18 2 37 4l4 -8l-18 -94 q-49 0 -99 2q-41 2 -89 3t-85 1q-41 0 -85 -4t-83 -8q-45 -6 -90 -13l13 95q57 4 93 16t56.5 38t27.5 69t7 110v467q0 78 -28.5 97.5t-82.5 19.5q-16 0 -34.5 -2t-34.5 -4q-20 -4 -39 -7z" />
<glyph unicode="2" horiz-adv-x="972" d="M55 12l162 181q172 195 253 328.5t81 219.5q0 74 -41 115t-113 41q-70 0 -137 -49t-115 -133h-18l-23 92q25 49 64 91t85 71.5t97 47t101 17.5q129 0 204.5 -67.5t75.5 -178.5q0 -47 -21.5 -100t-71.5 -129t-134 -177t-209 -243l8 -14h313q55 0 93.5 7t63 27.5t40.5 56.5 t33 95l82 11q-14 -51 -25 -105q-10 -47 -19.5 -104.5t-15.5 -112.5l-24 -14q-137 2 -262 6q-53 2 -109.5 3t-109 2t-98.5 2t-79 1l-110 -25z" />
<glyph unicode="3" horiz-adv-x="849" d="M41 -66l10 13q86 -18 164 -19q76 0 142.5 20.5t115.5 57.5t77 86t28 109q0 104 -89.5 154.5t-277.5 52.5l-10 10l-11 71l134 33q82 39 134 105.5t52 134.5q0 66 -46 104.5t-114 38.5q-59 0 -122.5 -28.5t-110.5 -75.5h-21l-20 86q55 41 112 74q49 29 108.5 51t117.5 22 q121 0 193.5 -62.5t72.5 -166.5q0 -82 -60.5 -160t-164.5 -131v-10q276 -66 276 -254q0 -82 -50 -165t-131 -149.5t-180.5 -108.5t-197.5 -42q-70 0 -99.5 35t-31.5 114z" />
<glyph unicode="4" horiz-adv-x="915" d="M8 182l8 76l566 774q2 0 4 1t4 1l65 -20v-721h191l12 -17l-16 -112q-23 0 -51 2q-25 0 -60 1t-76 3q0 -63 2 -124.5t7 -111.5q4 -57 6 -110l-11 -14l-145 -25l-12 18q4 59 6 125q2 53 3 120t3 126q-119 4 -252 6t-254 2zM166 293h348v459h-18z" />
<glyph unicode="5" horiz-adv-x="880" d="M33 -66l10 13q86 -18 166 -19q80 0 149.5 19.5t120.5 55.5t81 86t30 112q0 49 -21.5 88t-72 69.5t-132 55t-202.5 45.5l-19 22q8 92 14.5 180.5t10.5 159.5q6 82 10 160l17 16l387 17q59 4 85.5 18.5t43.5 61.5l67 8l-49 -242l-12 -12q-63 4 -135 8q-61 4 -142.5 6 t-171.5 2l-14 -258q102 -25 192.5 -53.5t157 -69.5t104 -94t37.5 -127q0 -94 -56 -180t-143 -152.5t-189.5 -105.5t-194.5 -39q-59 0 -92 29.5t-37 119.5z" />
<glyph unicode="6" horiz-adv-x="931" d="M82 403q0 115 29.5 211.5t77 176t108.5 142t125 111.5q150 113 340 181l14 -11l23 -61q-121 -47 -226 -125q-90 -66 -177 -171t-128 -255l8 -4q47 31 91 53q37 20 75.5 37t61.5 17q88 0 154.5 -31t110.5 -79t66.5 -108.5t22.5 -117.5q0 -80 -29.5 -152t-84 -126t-129 -85 t-164.5 -31q-86 0 -154 33t-116 90.5t-73.5 136t-25.5 168.5zM246 416q0 -156 64.5 -249t181.5 -93q98 0 156.5 64.5t58.5 180.5q0 51 -18.5 99.5t-51.5 85.5t-78 58.5t-100 21.5q-35 0 -67 -8.5t-59.5 -20.5t-48 -25.5t-32.5 -21.5q-6 -47 -6 -92z" />
<glyph unicode="7" horiz-adv-x="860" d="M78 653q8 57 16 119q6 53 12.5 114.5t10.5 121.5l12 10q37 -2 78 -4q35 -2 80 -3t92 -1h432l45 -58q-178 -358 -288.5 -606t-170.5 -385l-51 -176h-14l-123 37l-21 45l512 1003l-354 -14q-53 -2 -85 -12t-51.5 -31.5t-30.5 -56.5t-21 -90z" />
<glyph unicode="8" horiz-adv-x="993" d="M115 254q0 72 28.5 128t69.5 97t86 68.5t80 44.5q-45 25 -86 53.5t-73 64t-50 80t-18 101.5q0 63 26.5 123.5t75.5 107.5t116.5 75t149.5 28q59 0 116.5 -17.5t102.5 -51.5t73 -85t28 -121q0 -59 -19.5 -106t-50.5 -84t-66.5 -63.5t-66.5 -43.5q49 -27 93 -56.5t78 -67 t54.5 -84t20.5 -105.5q0 -76 -32 -142.5t-88 -115.5t-133 -78t-165 -29q-70 0 -133.5 18.5t-111.5 53.5t-76.5 87t-28.5 120zM264 303q0 -47 18.5 -90t52.5 -77t79 -53.5t100 -19.5q45 0 86 16.5t73 45.5t50 68.5t18 87.5q0 51 -24.5 91t-65.5 71.5t-93 58t-107 53.5 q-25 -10 -58 -29.5t-61.5 -49.5t-48 -73t-19.5 -100zM295 952q0 -47 22.5 -84t60.5 -67.5t86 -57t99 -53.5q20 12 42 30.5t40.5 45.5t29.5 61.5t11 79.5q0 111 -57.5 167t-143.5 56q-88 0 -139 -54t-51 -124z" />
<glyph unicode="9" horiz-adv-x="931" d="M74 641q0 80 29.5 151.5t83 126t129 85t165.5 30.5q86 0 153.5 -32.5t116 -90t74 -136.5t25.5 -169q0 -117 -29.5 -213t-77 -175t-109 -141.5t-124.5 -111.5q-150 -113 -340 -180l-14 10l-23 62q121 47 225 125q90 66 176.5 169t127.5 255l-7 6q-47 -31 -90 -54 q-37 -20 -75.5 -36.5t-61.5 -16.5q-88 0 -154.5 31t-110.5 79t-66.5 107.5t-22.5 118.5zM225 690q0 -53 17.5 -101t50.5 -84t79 -57.5t101 -21.5q33 0 65.5 8t59.5 20.5t48.5 26t33.5 21.5q6 43 6 92q0 154 -65.5 248t-180.5 94q-98 0 -156.5 -64.5t-58.5 -181.5z" />
<glyph unicode=":" horiz-adv-x="487" d="M115 92q0 53 33.5 90t93.5 37q57 0 86.5 -34.5t29.5 -82.5q0 -53 -35 -90t-94 -37t-86.5 36t-27.5 81zM115 666q0 53 33.5 90t93.5 37q57 0 86.5 -35t29.5 -82q0 -53 -35 -90t-94 -37t-86.5 36t-27.5 81z" />
<glyph unicode=";" horiz-adv-x="487" d="M31 -270q70 47 116 114.5t46 132.5q0 43 -19.5 81t-46.5 63l4 29q20 16 52 34.5t67 18.5q43 0 73.5 -41t30.5 -119q0 -59 -27.5 -113.5t-69.5 -101.5t-93 -85t-96 -65l-37 31v21zM115 666q0 53 33.5 90t93.5 37q57 0 86.5 -35t29.5 -82q0 -53 -35 -90t-94 -37t-86.5 36 t-27.5 81z" />
<glyph unicode="&#x3c;" d="M63 512l5 96l415 176q70 29 143.5 59.5t133.5 53.5q70 27 135 53l18 -10l15 -102q-68 -25 -135 -50q-59 -23 -129 -48t-134 -52l-315 -123v-12l344 -143q63 -29 129 -57.5t119 -51.5q63 -27 123 -53l2 -23l-62 -82q-61 29 -129 60q-57 27 -124.5 56.5t-131.5 57.5 q-57 25 -126.5 54.5t-131.5 56.5q-72 31 -147 61z" />
<glyph unicode="=" d="M37 340l22 100q88 -2 177 -2h313q61 0 137 1t143 5q78 2 158 7l12 -21l-16 -104l-465 -2q-70 0 -150.5 -1t-152.5 -1h-166zM37 662l22 100q88 -2 177 -2h313q61 0 137 1t143 5q78 2 158 6l12 -20l-16 -105l-465 -2q-70 0 -150.5 -1t-152.5 -1h-166z" />
<glyph unicode="&#x3e;" d="M104 868l62 82q61 -29 129 -59q57 -27 124.5 -57.5t131.5 -57.5q55 -25 126 -54.5t132 -55.5q72 -31 147 -62l17 -22l-4 -97l-416 -176q-72 -31 -144.5 -60.5t-132.5 -51.5q-70 -27 -135 -54l-18 11l-14 102q68 25 135 49q59 23 128.5 48.5t133.5 52.5l315 122v13 l-344 143q-63 29 -128.5 57.5t-119.5 51.5q-63 27 -123 53z" />
<glyph unicode="?" horiz-adv-x="737" d="M119 1305l67 108l29 8q94 -4 178 -30.5t146.5 -71.5t98.5 -105.5t36 -130.5q0 -86 -32 -145t-81 -104.5t-109.5 -83t-117.5 -78.5l-6 -19l43 -194l-6 -17l-125 -34l-19 8l-49 246l6 28l244 156q47 33 82 76t35 100q0 61 -30 108.5t-85 79t-132 49t-169 23.5zM178 92 q0 53 34 90t93 37q57 0 87 -34.5t30 -82.5q0 -53 -35 -90t-94 -37t-87 36t-28 81z" />
<glyph unicode="@" horiz-adv-x="1703" d="M68 385q0 168 61 324.5t175 277.5t275.5 194.5t362.5 73.5q154 0 282 -49t220 -134t142 -200.5t50 -248.5q0 -125 -42 -242t-125 -207t-206.5 -144.5t-285.5 -54.5q-74 0 -74 60q0 14 13.5 81.5t29.5 145.5q20 90 45 199l-12 4q-102 -193 -195.5 -308.5t-187.5 -181.5 q-84 0 -124 78t-40 201q0 131 42 255t109.5 220t151.5 154.5t166 58.5l205 -33l18 52l11 2l63 -31l16 -25q-33 -121 -65 -252q-29 -113 -57.5 -253t-49.5 -283l9 -8q113 0 195.5 33.5t138 95t83 146.5t27.5 187q0 135 -43 241t-123 178.5t-191.5 110.5t-246.5 38 q-156 0 -282 -58.5t-214 -157t-135 -229.5t-47 -274q0 -147 42 -281.5t130 -237t224 -168t327 -75.5v-14l-53 -74q-201 8 -353.5 76.5t-255 179.5t-154.5 254t-52 303zM575 354q0 -43 4.5 -80.5t12.5 -67.5t19.5 -47.5t23.5 -17.5q27 0 72 46t100 129t116.5 197t120.5 251 q-10 6 -31.5 17.5t-50 22.5t-61.5 19t-63 8q-49 0 -96.5 -38.5t-84 -105t-59.5 -152.5t-23 -181z" />
<glyph unicode="A" horiz-adv-x="1183" d="M-37 -6l17 96q57 6 90.5 39t68.5 119l400 1046l129 35h16q51 -186 104 -377q23 -82 49.5 -172t55.5 -183t58.5 -186.5t58.5 -179.5q12 -39 27.5 -64.5t38 -43t54 -25.5t76.5 -12l4 -8l-14 -84q-43 0 -82 2q-35 2 -71.5 3t-63.5 1q-59 0 -113.5 -3t-97.5 -7 q-51 -6 -94 -10l-6 14l8 80q106 8 144 24.5t38 53.5q0 39 -18 98l-68 223q-18 0 -46 1t-57.5 1h-59h-50.5q-59 0 -123.5 -6t-99.5 -10l-76 -213q-18 -55 -18 -80q0 -45 28.5 -64.5t94.5 -19.5h116l4 -8l-12 -88q-45 2 -92 6q-41 4 -91 6t-102 2q-37 0 -76.5 -1t-72.5 -3 q-39 -2 -76 -2zM373 559h180q41 0 98.5 3t91.5 7l-161 537h-15z" />
<glyph unicode="B" horiz-adv-x="1222" d="M119 -25l12 95q47 8 78 21t49 32.5t25.5 49.5t7.5 73l2 860q0 66 -14.5 88.5t-61.5 22.5q-10 0 -22.5 -1.5t-22.5 -1.5q-12 -2 -25 -2l-4 9l15 90q43 -2 84 -4q35 -2 74.5 -2h68.5t70 1t80 3q45 2 92 4q197 0 300 -80t103 -232q0 -102 -61.5 -184t-175.5 -131 q150 -33 233.5 -115t83.5 -196q0 -80 -39 -151.5t-105.5 -126t-153.5 -86t-183 -31.5q-68 0 -133.5 10t-143.5 10q-39 0 -80 -4t-75 -8q-39 -6 -78 -13zM436 227q0 -78 52.5 -110.5t181.5 -32.5q123 0 193.5 68.5t70.5 185.5q0 111 -69.5 181.5t-207.5 94.5l-213 -4z M449 719q55 -4 100 -8q39 -4 74.5 -6.5t48.5 -2.5q53 14 96 50q35 29 65.5 80t30.5 135q0 133 -87 195.5t-273 62.5q-23 0 -29 -9.5t-8 -37.5q-6 -100 -10 -215t-8 -244z" />
<glyph unicode="C" horiz-adv-x="1288" d="M82 608q0 156 53 288t148.5 228.5t226.5 150.5t287 54q63 0 126.5 -7t114.5 -17q59 -10 115 -25l8 -12q-12 -47 -20 -101q-10 -47 -18.5 -108.5t-12.5 -132.5l-98 -8q0 14 2 32q2 14 3 32.5t1 35.5q0 190 -301 190q-102 0 -186.5 -37.5t-142.5 -106.5t-90 -167t-32 -221 q0 -135 34 -246t95.5 -188.5t147.5 -120.5t192 -43q141 0 225 79t123 244l99 9q-12 -55 -23 -113q-10 -49 -19.5 -107.5t-13.5 -113.5l-12 -19q-53 -23 -119 -41q-55 -16 -132 -28.5t-169 -12.5q-139 0 -252.5 44t-193.5 127t-123 200t-43 262z" />
<glyph unicode="D" horiz-adv-x="1439" d="M119 -25l12 95q47 8 78 21t49 32.5t25.5 49.5t7.5 73l2 860q0 66 -14.5 88.5t-61.5 22.5q-10 0 -22.5 -1.5t-22.5 -1.5q-12 -2 -25 -2l-4 9l15 90l78 -4q33 -2 70.5 -2h66.5q35 0 88 1t102 3q57 2 121 4q150 0 273.5 -44t213 -125t138.5 -193.5t49 -250.5 q0 -154 -55.5 -285.5t-150.5 -229t-224 -154t-279 -56.5q-55 6 -108 13q-47 4 -97.5 8t-89.5 4t-80 -4t-75 -8q-41 -6 -80 -13zM438 268q0 -55 11.5 -92t40 -58.5t78.5 -29.5t128 -8q111 0 199 40t149.5 113.5t94 179t32.5 238.5q0 272 -161.5 416.5t-466.5 144.5 q-43 0 -57.5 -8t-16.5 -37q-6 -178 -12 -327.5t-10.5 -265t-6.5 -193.5t-2 -113z" />
<glyph unicode="E" horiz-adv-x="1210" d="M119 -20l12 94q92 12 126 48t34 124l2 860q0 66 -14.5 88.5t-61.5 22.5q-10 0 -22.5 -1.5t-22.5 -1.5q-12 -2 -25 -2l-4 9l15 90q47 -2 96 -4q41 -2 91 -2h97q123 0 215.5 1t164 4t128 8t107.5 11l6 -12q-10 -47 -19 -100q-8 -47 -16 -107.5t-12 -132.5l-98 -8q0 16 2 32 q0 14 1 30t1 26q0 49 -8.5 78.5t-40 44t-94 18.5t-171.5 4q-49 0 -77.5 -2t-43 -9t-18.5 -23.5t-4 -45.5l-16 -397q35 0 99 -1t111 -1q29 0 70 3t82 7q47 6 98 12l9 -10l-29 -121q-51 0 -103 2q-43 2 -93 3.5t-91 1.5q-47 0 -89 -5.5t-69 -9.5q-2 -84 -4 -145.5t-3 -107.5 t-1 -79.5v-58.5q0 -41 4 -65.5t21.5 -37t49.5 -16.5t87 -4q121 0 193.5 7t113.5 33t58.5 76t29.5 134l90 10l7 -10q-10 -51 -21 -106q-10 -47 -19.5 -110t-15.5 -128l-10 -12q-123 2 -238 6q-49 2 -101 3t-103.5 2t-96.5 2t-82 1q-59 0 -110 -3t-90 -7q-45 -6 -84 -10z" />
<glyph unicode="F" horiz-adv-x="1048" d="M119 -25l12 95q47 8 78 21t49 32.5t25.5 49.5t7.5 73l2 860q0 66 -14.5 88.5t-61.5 22.5q-10 0 -22.5 -1.5t-22.5 -1.5q-12 -2 -25 -2l-4 9l15 90q47 -2 96 -4q41 -2 91 -2h97q104 0 189.5 1t155 4t126 8t105.5 11l6 -12q-10 -47 -18 -103q-8 -47 -16.5 -109.5 t-12.5 -133.5l-98 -8q0 18 2 36q0 16 1 32t1 26q0 49 -8.5 78.5t-36 44t-82 18.5t-148.5 4q-49 0 -77.5 -2t-43 -9t-18.5 -23.5t-4 -45.5l-16 -432l210 -2q23 0 60 3t72 7q39 6 83 13l9 -11l-29 -122q-45 0 -90 2q-39 2 -83 3t-79 1q-47 0 -89 -5.5t-69 -9.5l-8 -340 q0 -84 18.5 -111.5t71.5 -27.5h41t47 2q27 2 58 4l4 -8l-19 -96q-57 2 -110 4q-47 2 -100.5 3t-94.5 1q-39 0 -80 -4t-75 -8q-39 -6 -78 -13z" />
<glyph unicode="G" horiz-adv-x="1366" d="M82 608q0 160 52 293t146.5 228.5t227.5 147.5t293 52q63 0 133 -7t129 -17q68 -10 135 -25l8 -12q-12 -47 -22 -101q-10 -47 -18.5 -108.5t-12.5 -132.5l-96 -8q0 16 2 34q2 16 3 35t1 41q0 96 -72.5 138t-236.5 42q-236 0 -365 -139t-129 -395q0 -135 33 -245 t94.5 -188.5t147.5 -120.5t192 -42q61 0 112.5 11t88.5 28q43 16 80 39v250q0 70 -21.5 90t-91.5 20h-141l-4 8l18 103q41 -2 84 -4q37 -2 83 -3.5t93 -1.5q33 0 64.5 1.5t56.5 3.5q29 2 55 6l8 -45q-18 -16 -30.5 -39t-19.5 -58.5t-10 -89t-3 -129.5q0 -53 4 -103t10 -77 l-12 -18q-61 -27 -137 -47q-66 -18 -151 -33t-183 -15q-137 0 -247.5 44t-188.5 127t-120 200t-42 262z" />
<glyph unicode="H" horiz-adv-x="1544" d="M119 -25l12 95q47 8 78 21t49 32.5t25.5 49.5t7.5 73l2 860q0 66 -14.5 88.5t-61.5 22.5q-10 0 -22.5 -1.5t-22.5 -1.5q-12 -2 -25 -2l-4 9l15 90q43 -2 84 -4q35 -2 74.5 -2h68.5q33 0 72 2t71 6q37 4 76 10l-8 -92q-45 -6 -70.5 -16.5t-39 -30t-18.5 -52t-7 -85.5 l-12 -332l344 -2q76 0 144.5 5t158.5 15l2 373q0 66 -14.5 88.5t-61.5 22.5q-10 0 -22.5 -1.5t-22.5 -1.5q-12 -2 -25 -2l-4 9l15 90l23 -1q22 -1 52.5 -2t65.5 -2t59 -1q37 0 80 2t80 6q43 4 86 10l-8 -92q-39 -6 -63.5 -13.5t-39 -20.5t-20.5 -33.5t-8 -49.5 q-6 -113 -12 -241t-9.5 -249.5t-5.5 -226t-2 -168.5q0 -84 18.5 -111.5t71.5 -27.5h31.5t30.5 2q16 2 30 4l4 -8l-18 -94q-47 0 -92 2q-39 2 -82 3t-78 1q-29 0 -68.5 -1t-76.5 -1q-43 -2 -90 -2l18 92q49 0 79 9t47 34t23.5 67t6.5 109v309h-121q-49 0 -102.5 1t-88.5 1 q-25 0 -81 -4t-113 -8q-68 -6 -146 -10l-8 -367q0 -84 18.5 -111.5t71.5 -27.5h31.5t30.5 2q16 2 30 4l5 -8l-19 -94l-18 1q-17 1 -42.5 2t-56 2t-57.5 1q-45 0 -98 -2t-100.5 -6t-79 -8t-33.5 -9z" />
<glyph unicode="I" horiz-adv-x="739" d="M115 -25l12 95q96 18 130 54t34 122l2 860q0 66 -14.5 88.5t-61.5 22.5q-12 0 -26.5 -1.5t-28.5 -1.5q-16 -2 -31 -2l-4 9l14 90l90 -4q39 -2 80 -2h74q35 0 77 2t77 6q41 4 82 10l-9 -92q-86 -10 -115.5 -35t-31.5 -82q-6 -111 -11 -240t-9.5 -250.5t-6.5 -226 t-2 -168.5q0 -84 18.5 -111.5t71.5 -27.5h37t35 2q18 2 37 4l4 -8l-18 -94q-49 0 -99 2q-41 2 -88 3t-82 1q-41 0 -82 -4t-75 -8q-41 -6 -80 -13z" />
<glyph unicode="J" horiz-adv-x="669" d="M47 -227l6 16q61 37 103.5 77t67 91t34.5 118.5t10 160.5l2 870q0 66 -14 87t-61 21q-10 0 -25.5 -1t-32.5 -3q-18 -2 -39 -4l-4 8l15 91h221q33 0 73.5 2t77.5 6q43 4 86 10l-8 -92q-72 -10 -93.5 -31.5t-23.5 -85.5q-2 -45 -5 -116.5t-5 -154.5t-5 -172t-5 -172 t-4 -151.5t-2 -109.5q-2 -209 -81 -336t-253 -197z" />
<glyph unicode="K" horiz-adv-x="1286" d="M117 -2l20 92q47 4 77 13.5t47.5 25.5t23.5 45t6 72l2 860q0 66 -14.5 88.5t-61.5 22.5q-10 0 -22.5 -1.5t-22.5 -1.5q-12 -2 -25 -2l-4 9l15 90q43 -2 84 -4q35 -2 74.5 -2h68.5q33 0 72 2t71 6q37 4 76 10l-8 -92q-78 -12 -105.5 -38t-29.5 -85l-25 -879q-1 -14 -1 -26 q-1 -63 17 -85q20 -28 74 -28h31.5t30.5 2q16 2 30 4l5 -8l-19 -94q-47 0 -92 2q-39 2 -82 3t-78 1q-39 0 -80 -1t-75 -1h-80zM496 645l2 29l366 381q63 63 64 106q0 53 -129 62l-4 8l14 88q43 -4 84 -8q35 -4 74 -5t67 -1q29 0 62.5 1t62.5 3q33 2 64 4l8 -15l-14 -84 q-27 -6 -49.5 -15t-49 -28.5t-59.5 -50t-78 -78.5l-330 -346l344 -448q74 -96 132.5 -135t129.5 -39l9 -8l-13 -70q-41 -6 -75 -12q-29 -4 -57.5 -8.5t-37.5 -4.5q-51 0 -110.5 46t-118.5 130z" />
<glyph unicode="L" horiz-adv-x="1038" d="M139 -20l13 94q80 12 109.5 48t29.5 124l2 860q0 66 -14.5 88.5t-61.5 22.5q-10 0 -22.5 -1.5t-22.5 -1.5q-12 -2 -25 -2l-4 9l15 90q45 -2 86 -4q35 -2 74.5 -2h68.5q33 0 72 2t71 6q37 4 76 10l-8 -92q-51 -6 -77.5 -17.5t-38 -33t-13.5 -55t-6 -85.5 q-6 -96 -11.5 -205.5t-8.5 -216t-4 -203t-1 -165.5q0 -53 5.5 -84t23.5 -47.5t53 -21.5t92 -5q88 0 144.5 10.5t91.5 41t54.5 88t35.5 151.5l90 10l6 -10q-10 -55 -20 -119q-10 -53 -20.5 -123.5t-18.5 -146.5l-10 -12q-104 4 -203 8q-84 2 -180 6t-168 4q-59 0 -108.5 -3 t-86.5 -7q-43 -6 -80 -10z" />
<glyph unicode="M" horiz-adv-x="1734" d="M94 -16l10 94q66 8 93.5 41t38.5 117q4 37 12 112.5t18 168.5t20.5 193.5t19.5 186.5t14.5 146.5t5.5 76.5q0 53 -42 80t-137 33l-6 10l17 72q45 -4 86 -6q35 -2 73.5 -3t63.5 -1q23 0 47.5 1t44.5 3q23 2 47 4q70 -225 132.5 -410.5t109.5 -320.5q55 -158 104 -285h11 q49 127 104 285q47 135 111.5 319t138.5 408h15q16 0 37.5 -1t44 -2t38.5 -1q23 0 60.5 1t72.5 5q41 2 88 6l4 -8l-10 -76q-90 -10 -126 -36t-36 -77q0 -14 2 -62t6.5 -117t9.5 -154t11 -172t12 -173t13 -157q6 -59 14 -97t18.5 -60t26.5 -30t41 -8h18t19 2q8 0 20 2l4 -8 l-18 -92q-35 0 -70 2q-29 2 -62.5 3t-62.5 1q-35 0 -70.5 -2t-68.5 -6l-74 -8l9 94q120 14 120 101q0 13 -3 58.5t-8 110t-11 143t-12 158.5q-16 188 -35 416h-11l-395 -1090l-49 -14l-397 1104h-10q-20 -242 -35 -436q-6 -84 -13.5 -164t-11.5 -146.5t-7 -110.5t-3 -54 q0 -63 63 -64h50q16 0 34 2l4 -8l-18 -92l-74 4q-31 2 -65.5 3t-59.5 1q-31 0 -62.5 -2t-55.5 -6q-31 -4 -58 -8z" />
<glyph unicode="N" horiz-adv-x="1472" d="M111 1239l16 76q33 -4 66 -6q29 -2 58.5 -3t51.5 -1q25 0 49.5 1t44.5 3q23 2 43 4q129 -199 251 -382t220 -325q113 -166 217 -309h11v829q0 88 -68 88q-14 0 -28.5 -1t-24.5 -1h-25l-4 9l19 92q35 -2 71 -4q29 -2 63 -3t60 -1q33 0 68 2t65 6l70 8l-10 -94 q-72 -10 -105 -40t-35 -89l-28 -1151l-60 -29q-152 236 -288 439.5t-242 357.5q-125 180 -231 332h-11l-10 -875q0 -47 14.5 -64.5t49.5 -17.5h59q20 0 45 2l4 -8l-18 -92q-39 2 -76 4q-33 2 -71 3t-70 1q-31 0 -65 -2t-62 -6q-33 -4 -64 -8l10 94q63 8 94 36.5t33 92.5 l27 895q0 63 -38 90t-140 37z" />
<glyph unicode="O" horiz-adv-x="1417" d="M82 608q0 152 52 284t142.5 229.5t214 152.5t265.5 55q129 0 235.5 -46t183 -129t118.5 -199.5t42 -256.5q0 -154 -53 -285.5t-145.5 -229t-217.5 -153t-270 -55.5q-127 0 -230.5 46.5t-179 130.5t-116.5 199.5t-41 256.5zM258 674q0 -131 34 -240.5t93 -187.5 t143.5 -122t184.5 -44q98 0 179 39t139.5 109.5t90 168t31.5 215.5q0 131 -34 241t-95 187.5t-147 121.5t-191 44q-96 0 -174 -39t-135.5 -109.5t-88 -167.5t-30.5 -216z" />
<glyph unicode="P" horiz-adv-x="1128" d="M129 -16l14 94q45 8 74 18t45.5 28.5t22.5 48.5t6 73l2 860q0 66 -15.5 88.5t-60.5 22.5q-10 0 -22.5 -1.5t-22.5 -1.5q-12 -2 -25 -2l-4 9l15 90q43 -2 84 -4q35 -2 74.5 -2h68.5q20 0 63.5 1t86.5 3q51 2 108 4q213 0 325.5 -93.5t112.5 -271.5q0 -88 -38.5 -169 t-104.5 -143.5t-149.5 -99t-176.5 -36.5h-172l-4 -201q0 -70 3 -112t12.5 -63.5t27 -27.5t47.5 -6h35t35 2q20 2 41 4l4 -8l-18 -94l-19 1q-20 1 -49 2t-61.5 2t-59.5 1q-41 0 -93 -2t-99 -4t-79 -5t-34 -5zM444 621l218 -31q247 41 247 317q0 160 -92 232.5t-293 72.5 q-37 0 -45 -3t-10 -25q-10 -137 -15 -283.5t-10 -279.5z" />
<glyph unicode="Q" horiz-adv-x="1427" d="M82 608q0 152 52 284t142.5 229.5t214 152.5t265.5 55q129 0 235.5 -46t183 -129t118.5 -199.5t42 -256.5q0 -127 -36.5 -240.5t-103.5 -204.5t-159 -156.5t-202 -96.5v-10q109 -74 197.5 -125t163.5 -84t140.5 -47.5t126.5 -14.5q72 0 119 11q25 4 45 10l8 -6l13 -37 q-45 -39 -82 -70q-33 -27 -65 -48t-48 -21q-74 0 -139.5 15t-152.5 60t-208 127t-303 215q-127 0 -230.5 46.5t-179 130.5t-116.5 199.5t-41 256.5zM258 674q0 -131 34 -240.5t93 -187.5t143.5 -122t184.5 -44q98 0 179 39t139.5 109.5t90 168t31.5 215.5q0 131 -34 241 t-95 187.5t-147 121.5t-191 44q-96 0 -174 -39t-135.5 -109.5t-88 -167.5t-30.5 -216z" />
<glyph unicode="R" horiz-adv-x="1251" d="M117 -8l18 92q47 6 78 15.5t48.5 26.5t23.5 46t6 74l2 860q0 66 -15.5 88.5t-60.5 22.5q-10 0 -22.5 -1.5t-22.5 -1.5q-12 -2 -25 -2l-4 9l15 90q43 -2 84 -4q35 -2 74.5 -2h68.5q27 0 69 1t83 3q47 2 100 4q193 0 302.5 -86t109.5 -236q0 -123 -79 -225t-222 -168 l225 -356q31 -49 58.5 -82t57 -53.5t63.5 -29.5t75 -9l8 -9l-12 -69l-174 -23q-51 0 -109.5 52.5t-108.5 142.5l-219 397h-170l-6 -305q0 -55 4 -88t19.5 -51.5t45.5 -23.5t79 -5l4 -8l-19 -86l-21 1q-20 1 -51.5 2t-69.5 2t-75 1h-80t-75 -2q-41 -2 -80 -4zM446 674 l211 -21q61 20 111 60q41 35 76 92t35 149q0 270 -375 271q-23 0 -29 -9.5t-8 -37.5q-4 -82 -8 -151t-6 -129t-4.5 -115.5t-2.5 -108.5z" />
<glyph unicode="S" horiz-adv-x="1085" d="M117 66q6 49 12 104q4 47 8 111.5t4 140.5l92 10q0 -111 10.5 -180.5t40 -108.5t81 -53t135.5 -14q129 0 206.5 60.5t77.5 164.5q0 49 -26.5 89t-69.5 74t-99.5 64.5t-115.5 61.5q-61 33 -120.5 67.5t-107.5 76.5t-77 94.5t-29 119.5q0 80 36 149.5t99.5 121t149.5 81 t186 29.5q68 0 126.5 -8t99.5 -18q49 -10 88 -25l6 -12q-10 -47 -19 -103q-8 -47 -15 -109.5t-11 -133.5l-80 -9l-12 11q0 12 2 28q2 14 3 34t1 44q0 106 -53.5 148.5t-190.5 42.5q-113 0 -185.5 -55.5t-72.5 -141.5q0 -47 23.5 -85t61.5 -70.5t88 -61.5t105 -57 q68 -35 135.5 -71t122 -80t88 -98.5t33.5 -123.5q0 -88 -36.5 -161t-104.5 -126t-160.5 -83t-203.5 -30q-72 0 -132.5 10.5t-101.5 24.5q-51 14 -88 35z" />
<glyph unicode="T" horiz-adv-x="1118" d="M18 958q6 53 13 113q4 51 9 113.5t9 128.5l19 16l170 -22h634l175 22l18 -16q2 -66 8 -127.5t10 -110.5q6 -57 13 -108l-97 -9q-16 92 -29.5 143.5t-47 77t-96 33t-173.5 13.5q-6 -61 -12 -178t-10 -257.5t-7 -288t-3 -272.5q0 -76 26.5 -107.5t89.5 -31.5h48.5t35.5 2 q16 2 29 4l6 -8l-18 -94q-59 0 -115 2q-47 2 -99.5 3t-86.5 1q-39 0 -87.5 -1t-91.5 -3l-102 -4l16 88q72 6 113 15t61.5 35t25.5 73t5 129v893q-121 -6 -187.5 -13.5t-101 -32t-48 -73.5t-25.5 -139z" />
<glyph unicode="U" horiz-adv-x="1394" d="M72 1221l14 90l86 -4q35 -2 76 -2h69q33 0 71 2t71 6q37 4 73 10l-8 -92q-39 -6 -63.5 -13.5t-38.5 -20.5t-20.5 -33.5t-8.5 -49.5l-16 -602q0 -205 88 -312.5t254 -107.5q168 0 256 88t88 258q0 27 -1 70t-2 95t-2 109.5t-1 112.5q-4 131 -6 281q-4 72 -17.5 91.5 t-58.5 19.5q-10 0 -24.5 -1.5t-28.5 -1.5q-16 -2 -35 -2l-4 9l14 90l86 -4q35 -2 76 -2h69q33 0 69 2t65 6q35 4 65 10l-8 -92q-45 -6 -72.5 -13.5t-43 -19.5t-20.5 -32.5t-5 -51.5v-688q0 -217 -133.5 -334t-374.5 -117q-217 0 -333 118t-116 335v678q0 66 -14 88.5 t-62 22.5q-10 0 -22 -1.5t-23 -1.5q-12 -2 -24 -2z" />
<glyph unicode="V" horiz-adv-x="1249" d="M-18 1223l14 88q47 -2 92 -4q39 -2 79 -2h66q41 0 94.5 3t100.5 7q55 6 113 12l6 -14l-8 -80q-109 -8 -146 -24.5t-37 -61.5q0 -12 11.5 -59.5t29 -117t41 -153.5t47.5 -170q55 -203 129 -448h19q27 68 62.5 161t73.5 192t74 197.5t65.5 180.5t47 138t17.5 73 q0 43 -33 62.5t-109 19.5h-106l-4 8l12 88q45 -4 96 -8q41 -4 93.5 -5t103.5 -1h76t74 2q37 2 75 4l-16 -97q-31 -2 -52.5 -6t-35.5 -15t-25.5 -29.5t-21.5 -47.5l-441 -1106l-131 -45q-53 176 -112 367q-51 164 -113.5 363.5t-128.5 402.5q-18 59 -63 86.5t-125 29.5z" />
<glyph unicode="W" horiz-adv-x="1908" d="M-14 1223l12 88q47 -2 90 -4q37 -2 76 -2h65q53 0 107.5 3t95.5 7q49 6 94 12l6 -14l-8 -80q-104 -8 -140 -24.5t-36 -59.5q0 -16 10.5 -64.5t27.5 -118t40 -153.5t47 -170q55 -201 127 -444h12l289 786l-37 113q-20 61 -64 86.5t-120 29.5l-4 9l14 88q47 -2 90 -4 q37 -2 76 -2h66q47 0 98 3t96 7q53 6 103 12l6 -14l-8 -80q-106 -8 -142.5 -24.5t-36.5 -61.5q0 -12 11.5 -60.5t29 -117t40 -152.5t46.5 -170q55 -203 127 -448h13q25 70 59.5 163t71.5 193t72.5 200.5t64.5 183.5t46 139.5t17 72.5q0 39 -32.5 55.5t-106.5 16.5h-102l-4 8 l14 88q43 -4 92 -8q41 -4 92 -5t101 -1h72.5t70.5 2l74 4l-15 -97q-31 -2 -50 -6t-33.5 -14t-25.5 -28.5t-22 -49.5l-430 -1106l-127 -45q-35 123 -76 266q-35 123 -81 278t-99 325h-12l-291 -824l-131 -45q-51 176 -106 367q-47 164 -108.5 364.5t-127.5 401.5 q-18 59 -62 86.5t-122 29.5q0 2 -1 4.5t-1 4.5z" />
<glyph unicode="X" horiz-adv-x="1343" d="M25 6l14 84q90 27 165 97.5t167 185.5l225 278l-268 402q-51 76 -119 116.5t-162 53.5l-4 8l12 80q59 -2 113 -4q47 -2 97 -2h85q59 0 110.5 2t88.5 6q43 4 78 8l6 -14l-6 -72q-86 -6 -123 -22.5t-37 -51.5q0 -25 63.5 -128t167.5 -261q35 47 81 107.5t88 118t71 103.5 t29 68q0 29 -28 42.5t-91 19.5l-4 8l12 80q43 -4 84 -8q35 -4 74 -5t67 -1q29 0 65 1t64 3l70 4l8 -15l-12 -75q-47 -10 -80 -24.5t-63.5 -39t-61.5 -60.5t-74 -89l-247 -314l299 -436q55 -80 119.5 -121t160.5 -49l4 -8l-14 -88q-47 0 -92 2q-39 2 -83 3t-79 1 q-43 0 -98.5 -2t-104.5 -6l-114 -8l-7 14l9 80q82 4 120.5 20.5t38.5 51.5q0 18 -10 39.5t-31 50.5l-223 335l-188 -249q-59 -80 -82 -117t-23 -66q0 -53 119 -61l4 -8l-14 -88q-43 2 -84 6q-35 4 -74 6t-67 2q-31 0 -66 -1t-66 -3q-37 -2 -71 -4z" />
<glyph unicode="Y" horiz-adv-x="1101" d="M-39 1231l12 80l78 -4q35 -2 74 -2h74q43 0 93 2t95 6l102 8l7 -14l-7 -72q-92 -8 -123.5 -23.5t-31.5 -50.5q0 -14 16.5 -59t42 -103.5t55 -123t55 -119t43.5 -88.5l17 -35h10l234 434q33 59 33 102q0 53 -129 62l-4 8l12 80q45 -4 86 -8q35 -4 74 -5t67 -1q29 0 62.5 1 t62.5 3q33 2 64 4l8 -15l-13 -75q-53 -10 -85.5 -25.5t-59.5 -45.5t-54.5 -76t-68.5 -120l-205 -360q-16 -29 -24 -57.5t-12.5 -69.5t-5.5 -98.5t-3 -141.5v-14q0 -67 18 -95q19 -30 72 -30h33t33 2q18 2 35 4l4 -8l-19 -94q-49 0 -96 2q-41 2 -85 3t-79 1q-39 0 -79.5 -4 t-75.5 -8q-39 -6 -78 -13l12 95q55 10 87 24.5t48.5 39t20.5 62t4 95.5v90q0 59 -11.5 108.5t-47.5 122.5l-185 375q-31 63 -52 105.5t-47 70t-62.5 41t-96.5 19.5z" />
<glyph unicode="Z" horiz-adv-x="1163" d="M70 59l764 1155l-355 -12q-72 -4 -120 -19.5t-80.5 -48t-50 -85t-25.5 -129.5l-97 -9q8 61 17 129q6 57 12 128t8 143l21 18l358 -22l529 -15l22 -59q-145 -193 -274 -377t-232.5 -339t-177.5 -269.5t-106 -165.5l415 14q106 2 171 83t100 257l96 10q-12 -68 -23 -137 q-10 -59 -17 -134t-11 -148l-31 -33l-741 12l-144 -12z" />
<glyph unicode="[" horiz-adv-x="632" d="M197 -258q4 160 10 307q2 61 4 128t4 128.5t3 114.5t1 92t-1 92t-3 115.5t-4 128t-4 129.5q-6 147 -10 311l376 23l9 -13l-13 -63l-233 -49v-1342l237 -49l9 -14l-13 -62z" />
<glyph unicode="\" horiz-adv-x="673" d="M76 1362l16 20h94l236 -919q29 -117 62.5 -235.5t62.5 -217.5q33 -113 63 -219l-14 -16h-98q-25 96 -54 207q-25 94 -55.5 211.5t-62.5 246.5q-16 61 -36 134t-40.5 150t-42 153.5t-39.5 148.5q-45 166 -92 336z" />
<glyph unicode="]" horiz-adv-x="632" d="M51 -268l12 63l234 49v1342l-238 49l-8 14l12 62l373 -23q-6 -164 -12 -309q-2 -63 -4 -129t-3 -126t-2 -113.5t-1 -92.5t1 -92t2 -115.5t3 -128t4 -129.5q6 -147 12 -311l-377 -23z" />
<glyph unicode="^" d="M115 154q27 66 53 135q23 59 52.5 132t60.5 144l176 416l96 4l22 -16q31 -76 62 -148q27 -61 56.5 -132t54.5 -126q27 -63 57.5 -130.5t56.5 -125.5q31 -68 60 -129l-82 -61l-23 2q-27 59 -53 123q-23 53 -51.5 118.5t-57.5 128.5l-143 345h-12l-123 -316 q-27 -63 -52.5 -133t-48.5 -129q-25 -68 -49 -135l-102 14z" />
<glyph unicode="_" horiz-adv-x="937" d="M-12 -276l22 100q88 -2 176 -2h314q61 0 137 1t143 5q66 2 112 3t46 3l12 -20l-16 -105q-123 0 -272.5 -1t-286.5 -1t-240.5 -1t-134.5 -1z" />
<glyph unicode="`" horiz-adv-x="815" d="M145 1374l78 84l21 4q45 -57 98 -116q43 -51 98.5 -114t110.5 -122l-41 -39l-18 -4q-66 59 -128.5 110.5t-109.5 90.5q-57 45 -107 84z" />
<glyph unicode="a" horiz-adv-x="954" d="M84 238q0 59 29.5 104t79.5 59l387 107l4 90q0 104 -47.5 160.5t-133.5 56.5q-51 0 -94 -16.5t-78 -34.5q-39 -23 -73 -51l-11 6l-24 88q70 39 133 72q53 27 109.5 49t91.5 22q135 0 209.5 -69.5t74.5 -194.5q0 -29 -6 -88t-12 -130t-12 -139.5t-6 -113.5q0 -94 83 -94 q25 0 47.5 7t38.5 17q20 10 37 27l29 -33q-25 -37 -51 -69q-25 -29 -56.5 -55.5t-70.5 -39.5q-168 0 -182 166l-9 2q-74 -74 -134 -116.5t-91 -42.5q-57 0 -105 18t-83 52t-54.5 81t-19.5 103zM240 260q0 -59 39.5 -98t101.5 -39q39 0 91 27.5t95 70.5l8 209l-276 -84 q-59 -18 -59 -86z" />
<glyph unicode="b" horiz-adv-x="1040" d="M47 1393l8 67q53 6 107.5 16.5t97.5 20.5q51 10 98 23l13 -27q-6 -10 -13.5 -64.5t-13.5 -144.5t-11 -212t-9 -265q94 68 159.5 105.5t87.5 37.5q88 0 161 -31.5t125 -90t81 -138.5t29 -178q0 -113 -40 -210t-109.5 -170t-162 -115t-198.5 -42q-53 0 -100.5 4.5 t-84.5 8.5q-43 6 -79 12l-19 16v1266q0 111 -76 111q-14 0 -30 -4q-8 -2 -15 -3zM313 131q37 -18 94.5 -30.5t106.5 -12.5q137 0 216 93t79 255q0 78 -20.5 146.5t-57.5 119t-86 80t-106 29.5q-41 0 -103.5 -31.5t-116.5 -79.5z" />
<glyph unicode="c" horiz-adv-x="868" d="M74 428q0 111 35.5 206t99 165.5t150.5 110.5t188 40q49 0 92 -6t76 -14q37 -8 71 -19l7 -14q-10 -37 -19 -82q-8 -39 -15 -90t-9 -111l-84 -6v64q0 76 -46.5 122t-121.5 46q-127 0 -193.5 -88t-66.5 -254q0 -180 74.5 -282.5t203.5 -102.5q43 0 84 10t74 22q37 14 74 35 l12 -4l22 -63q-51 -39 -102 -70q-43 -27 -92 -47.5t-86 -20.5q-98 0 -177 32t-134.5 91.5t-86 143.5t-30.5 186z" />
<glyph unicode="d" horiz-adv-x="1099" d="M74 414q0 111 40 208t109.5 170.5t162.5 115.5t198 42q29 0 63.5 -2t77.5 -6v340q0 111 -76 111q-14 0 -35 -4q-8 -2 -16 -5l8 76q53 6 107.5 16.5t97.5 20.5q51 10 98 23l13 -27q-10 -18 -20.5 -135t-19 -296t-13.5 -400.5t-5 -446.5q0 -94 84 -94q25 0 47.5 7t38.5 17 q20 10 37 27l29 -33q-25 -39 -53 -71q-25 -29 -58 -55.5t-67 -37.5q-160 0 -183 146l-14 6q-213 -145 -256 -145q-88 0 -160.5 30.5t-125 88t-81 137t-28.5 176.5zM231 483q0 -78 20.5 -145.5t57.5 -116.5t86 -77.5t107 -28.5q37 0 75.5 16t71.5 37q37 23 76 55v561 q-23 12 -53 23q-27 10 -63 17t-83 7q-137 0 -216 -93t-79 -255z" />
<glyph unicode="e" horiz-adv-x="917" d="M74 428q0 104 36.5 199.5t98 167t143.5 113.5t174 42q305 0 305 -297q-2 -43 -4 -56t-8 -44l-26 -25h-566v-32q0 -86 21.5 -157t61.5 -120t96.5 -76.5t123.5 -27.5q47 0 93.5 9t81.5 21q41 14 77 33l13 -4l22 -59q-55 -39 -110 -70q-47 -27 -101.5 -48.5t-101.5 -21.5 q-96 0 -176 33t-136.5 92.5t-87 142.5t-30.5 185zM236 604l370 19q31 4 41 14t10 41q0 82 -44 125t-126 43q-96 0 -164.5 -64.5t-86.5 -177.5z" />
<glyph unicode="f" horiz-adv-x="675" d="M84 842l14 69l123 23v8q0 133 34 240.5t95.5 182.5t147.5 115t194 40q53 0 95 -6.5t73 -14.5q37 -8 66 -18l4 -19q-10 -16 -21 -39q-10 -18 -21 -41.5t-22 -52.5l-22 -6q-31 20 -68 37q-33 14 -76 26.5t-92 12.5q-229 0 -235 -379l-2 -100h104t92 2q47 2 86 4l6 -6 l-20 -109q-39 0 -82 2q-37 2 -86 3t-102 1l-9 -616q0 -113 105 -113h49.5t38.5 2q20 0 35 2l4 -8l-14 -88q-49 0 -97 2q-41 0 -85 1t-72 1q-43 0 -84 -1t-74 -3q-37 -2 -72 -4l10 80q117 14 117 121v552q-4 49 -28.5 64.5t-100.5 19.5z" />
<glyph unicode="g" horiz-adv-x="1032" d="M106 174q23 25 53.5 48.5t57.5 41.5q31 23 62 41v8q-72 39 -112 110t-40 163q0 74 30.5 139.5t83 115.5t122 79.5t145.5 29.5q59 0 109.5 -11t91.5 -11q39 4 88 14t92 21q51 12 102 26l6 -8l-22 -115q-27 -2 -55 -6q-25 -4 -57 -7t-64 -5l-8 -10q81 -91 81 -204 q0 -81 -31.5 -147.5t-86 -115.5t-128 -77t-159.5 -28q-29 0 -57.5 4t-61.5 13q-86 -47 -86 -90q0 -47 59.5 -72t186.5 -29q238 -12 337 -62t99 -157q0 -72 -43 -137.5t-113.5 -117.5t-161.5 -83t-190 -31q-147 0 -228 72t-81 201q25 35 59.5 66.5t67.5 58.5q37 31 76 59v12 q-47 6 -88 24.5t-71 45.5t-47.5 60.5t-17.5 70.5zM281 621q0 -119 64.5 -192t170.5 -73q94 0 148.5 59.5t54.5 164.5q0 119 -65.5 192.5t-170.5 73.5q-94 0 -148 -60.5t-54 -164.5zM287 -227q0 -78 59.5 -123t165.5 -45q59 0 113.5 16.5t96.5 45t66.5 64.5t24.5 76 q0 31 -16.5 51.5t-60.5 38t-121.5 32t-200.5 30.5q-37 -29 -64 -59q-25 -27 -44 -60t-19 -67z" />
<glyph unicode="h" horiz-adv-x="1093" d="M51 1395l8 65q53 6 107.5 16.5t97.5 20.5q51 10 98 23l13 -27q-8 -12 -15.5 -69.5t-13.5 -151.5t-11 -217t-9 -264q14 10 53 35.5t86 53t93 49t75 21.5q135 0 207.5 -68.5t72.5 -195.5q0 -27 -5 -89t-11 -136t-11 -144.5t-5 -115.5q0 -115 71 -115h22.5t22.5 2q12 0 27 2 l4 -8l-16 -88q-31 0 -64 2q-29 2 -59.5 3t-59.5 1q-33 0 -69.5 -4t-67.5 -8q-37 -6 -74 -13l9 84q61 16 87.5 48t26.5 86l13 405q0 102 -44 157.5t-126 55.5q-41 0 -82 -14.5t-77 -33t-62.5 -37.5t-38.5 -28q-4 -119 -5.5 -244.5t-1.5 -252.5q0 -63 16.5 -89t57.5 -26h22.5 t22.5 2q12 0 27 2l4 -8l-18 -88q-33 0 -66 2q-29 2 -60.5 3t-60.5 1q-33 0 -68.5 -1t-64.5 -1q-37 -2 -70 -2l13 84q59 6 82.5 30.5t23.5 82.5v1089q0 106 -76 107h-43z" />
<glyph unicode="i" horiz-adv-x="577" d="M86 815l8 76q51 8 103.5 17.5t95.5 19.5q51 10 96 22l10 -24q-10 -23 -18 -93.5t-14.5 -171t-10.5 -220t-4 -240.5q0 -115 72 -115h22.5t22.5 2q12 0 27 2l4 -8l-17 -88q-31 0 -63 2q-29 2 -59.5 3t-59.5 1q-33 0 -69.5 -4t-67.5 -8q-37 -6 -74 -13l8 84q61 16 88 48 t27 86v520q0 110 -75 110h-1q-14 0 -35 -4zM172 1337q0 51 35 86t86 35q43 0 71.5 -28.5t28.5 -75.5q0 -51 -35 -86t-86 -35q-45 0 -72.5 28.5t-27.5 75.5z" />
<glyph unicode="j" horiz-adv-x="512" d="M31 -455l4 17q43 43 72.5 90t47 106.5t24.5 137t7 182.5v635q0 63 -17 86.5t-65 23.5q-16 0 -36 -4q-8 -2 -19 -2l8 76q47 6 99.5 15.5t95.5 19.5q51 10 100 22l10 -24q-16 -29 -25 -274.5t-9 -680.5q0 -147 -66.5 -267t-193.5 -198zM147 1337q0 51 35 86t86 35 q43 0 72 -28.5t29 -75.5q0 -51 -35 -86t-86 -35q-45 0 -73 28.5t-28 75.5z" />
<glyph unicode="k" horiz-adv-x="1017" d="M51 1384q0 10 1 18.5t3 18.5l4 39q53 6 107.5 16.5t97.5 20.5q51 10 98 23l13 -27q-6 -10 -13.5 -68.5t-14.5 -150.5t-12 -214t-9 -261.5t-6.5 -292t-2.5 -305.5q0 -63 16.5 -89t57.5 -26h22.5t22.5 2q12 0 27 2l4 -8l-18 -88q-33 0 -66 2q-29 2 -60.5 3t-60.5 1 q-33 0 -68.5 -2t-64.5 -4q-37 -4 -70 -6l11 84q41 6 63.5 19t32.5 38t11 60.5t1 86.5v1006q0 111 -76 111q-14 0 -34 -4q-8 -2 -17 -5zM369 487l4 29l250 229q29 27 39 41.5t10 30.5q0 23 -27 33t-86 10l-6 10l18 60q35 -2 72 -2q31 -2 65.5 -2h63.5t63.5 1t63.5 5 q35 2 68 6l6 -10l-17 -64q-55 -16 -111.5 -54t-111.5 -86t-108.5 -102.5t-104.5 -103.5l215 -276q72 -92 128.5 -130t119.5 -38l6 -11l-12 -59q-33 -8 -64 -16q-27 -6 -52 -11.5t-36 -5.5q-20 0 -37.5 6.5t-33.5 14.5q-33 16 -65 52t-79 101z" />
<glyph unicode="l" horiz-adv-x="499" d="M51 1384q0 10 1 18.5t3 18.5l4 39q53 6 107.5 16.5t97.5 20.5q51 10 98 23l13 -27q-6 -12 -13.5 -69.5t-14.5 -150.5t-12 -215t-9 -262.5t-6.5 -292t-2.5 -302.5q0 -61 16.5 -88t55.5 -27h22.5t22.5 2q12 0 27 2l4 -8l-16 -88q-31 0 -64 2q-29 2 -59.5 3t-59.5 1 q-33 0 -69.5 -4t-67.5 -8q-37 -6 -74 -13l8 84q45 12 69 29.5t34 43.5t11 60.5t1 83.5v1006q0 111 -76 111q-14 0 -34 -4q-8 -2 -17 -5z" />
<glyph unicode="m" horiz-adv-x="1703" d="M80 825l6 68q53 8 104.5 18.5t92.5 20.5q47 10 90 20l12 -16q-6 -18 -10 -41q-4 -18 -7 -43t-6 -51l5 -6q18 12 58 38.5t84 52t87 45t72 19.5q98 0 165.5 -42t96.5 -120q12 8 51 35t86 55.5t94 50t78 21.5q129 0 205 -70.5t76 -193.5q0 -27 -4.5 -89t-10.5 -136 t-10 -144.5t-4 -115.5q0 -63 16.5 -89t57.5 -26h22t23 2q12 0 26 2l4 -8l-18 -88q-33 0 -66 2q-29 2 -60.5 3t-59.5 1q-33 0 -69 -2t-64 -4q-37 -4 -70 -6l10 84q59 10 84 36.5t25 84.5l8 405q0 102 -44 157.5t-126 55.5q-37 0 -74 -11.5t-69.5 -27.5t-60.5 -33.5t-44 -29.5 l-22 -508q0 -115 71 -115h22.5t22.5 2q12 0 27 2l4 -8l-16 -88q-31 0 -64 2q-29 2 -59.5 3t-59.5 1q-33 0 -69.5 -4t-67.5 -8q-37 -6 -74 -13l9 84q61 16 87.5 48t26.5 86l8 405q0 102 -44 157.5t-126 55.5q-37 0 -75.5 -12.5t-72.5 -29.5t-61.5 -34.5t-41.5 -29.5 q-2 -53 -5.5 -127t-6.5 -148t-5 -136.5t-2 -92.5q0 -63 16.5 -89t57.5 -26h22.5t22.5 2q12 0 27 2l4 -8l-19 -88q-33 0 -65 2q-29 2 -60.5 3t-60.5 1q-33 0 -69 -1t-64 -1q-37 -2 -70 -2l12 84q59 6 83 30.5t24 82.5v499q0 70 -22.5 97.5t-77.5 27.5h-23z" />
<glyph unicode="n" horiz-adv-x="1150" d="M80 825l6 68q53 8 104.5 18.5t92.5 20.5q47 10 90 20l12 -16q-6 -18 -10 -41q-4 -18 -7 -43t-6 -51l5 -6q18 12 58 37.5t86 52t89 46t68 19.5q129 0 204.5 -70.5t75.5 -193.5q0 -27 -4 -89t-10 -136t-10 -144.5t-4 -115.5q0 -115 71 -115h22.5t22.5 2q12 0 27 2l4 -8 l-16 -88q-31 0 -64 2q-29 2 -59.5 3t-59.5 1q-33 0 -69.5 -4t-67.5 -8q-37 -6 -74 -13l9 84q61 16 87.5 48t26.5 86l8 405q0 102 -44 157.5t-126 55.5q-37 0 -75.5 -12.5t-72.5 -29.5t-61.5 -34.5t-41.5 -29.5q-2 -53 -5.5 -127t-6.5 -148t-5 -136.5t-2 -92.5 q0 -63 16.5 -89t57.5 -26h22.5t22.5 2q12 0 27 2l4 -8l-19 -88q-33 0 -65 2q-29 2 -60.5 3t-60.5 1q-33 0 -69 -2t-64 -4q-37 -4 -70 -6l10 84q59 10 84 36.5t25 84.5v499q0 70 -22.5 97.5t-77.5 27.5h-23z" />
<glyph unicode="o" horiz-adv-x="1019" d="M74 430q0 111 36.5 205t100 164.5t151 110.5t187.5 40q88 0 160.5 -33.5t125 -93t82 -143.5t29.5 -184q0 -111 -37 -205t-100.5 -165t-150.5 -111t-187 -40q-88 0 -161.5 34t-126 93.5t-81 143.5t-28.5 184zM238 489q0 -92 21.5 -167.5t59 -131t90.5 -85t119 -29.5 q117 0 183.5 93t66.5 253q0 92 -21.5 169t-59.5 132t-92 86t-118 31q-117 0 -183 -94.5t-66 -256.5z" />
<glyph unicode="p" horiz-adv-x="1081" d="M82 825l6 68q53 8 104.5 18.5t92.5 20.5q47 10 90 20l12 -16q-4 -16 -8 -35q-4 -16 -7 -35.5t-5 -40.5l8 -14q92 63 153.5 98t83.5 35q88 0 161 -31.5t125 -88t81 -136.5t29 -176q0 -111 -41 -208t-110 -171t-162 -116t-197 -42q-18 0 -45 1t-50 4q-27 2 -55 4 q0 -53 1 -105.5t1 -105.5q0 -94 18.5 -128t77.5 -34q16 0 35 1t35 1l4 -6l-16 -78h-195q-45 0 -84 -2t-67 -6q-35 -4 -66 -6l10 79q33 4 53.5 11.5t32 24t15.5 43t4 69.5q0 25 1 69t1 93t1 97t1 81v610q0 70 -22.5 97.5t-77.5 27.5h-23zM350 127q41 -16 97.5 -27.5 t107.5 -11.5q137 0 216 93t79 255q0 78 -20.5 145.5t-57.5 117t-86 78t-106 28.5q-41 0 -100.5 -27.5t-112.5 -72.5q-4 -63 -7.5 -136t-5.5 -150t-3 -151.5t-1 -140.5z" />
<glyph unicode="q" horiz-adv-x="1056" d="M74 414q0 111 40 208t109.5 170.5t162.5 115.5t198 42q43 0 92 -4t96 -14q23 8 43.5 17t36.5 16q18 8 33 14l16 -18q-10 -23 -17 -116t-11.5 -244.5t-7.5 -358.5t-3 -459q0 -55 3 -89t10.5 -52.5t21.5 -24.5t39 -6h37q8 0 16 2l4 -4l-14 -80h-188q-35 0 -74 -1t-72 -3 l-74 -4l11 78q43 2 68.5 8t40 19.5t19.5 37t7 60.5l8 399q-100 -70 -166.5 -109t-89.5 -39q-88 0 -160.5 32t-125 90.5t-81 138t-28.5 178.5zM231 483q0 -78 20.5 -146.5t57.5 -119.5t86 -79.5t107 -28.5q37 0 75.5 17t71.5 40q37 25 76 57v561q-23 12 -53 23q-27 10 -63 17 t-83 7q-137 0 -216 -93t-79 -255z" />
<glyph unicode="r" horiz-adv-x="784" d="M92 827l6 64q47 8 95.5 18.5t89.5 20.5q47 10 92 22l14 -12q-6 -33 -10 -70q-4 -30 -7 -68q-2 -22 -2 -45q0 -14 1 -28l8 -6q31 49 68.5 89t76.5 68.5t76 45t68 16.5q29 0 49 -4q8 -2 14 -4l6 -8l-14 -101q-6 -43 -11 -94t-7 -98l-80 -6q0 84 -11.5 111.5t-44.5 27.5 q-45 0 -96 -37t-94 -102q-4 -106 -8 -193q-2 -37 -3 -73.5t-2 -67.5t-2.5 -53.5t-1.5 -30.5q0 -70 19.5 -94.5t79.5 -24.5h25.5t29.5 2q16 0 35 2l2 -8l-18 -90q-37 0 -74 2q-33 0 -70 1t-65 1q-47 0 -86 -1t-68 -3q-35 -2 -61 -4l10 82q61 6 81.5 39.5t20.5 130.5v450 q0 68 -18.5 96.5t-59.5 28.5q-14 0 -30 -4q-8 -2 -13 -2z" />
<glyph unicode="s" horiz-adv-x="823" d="M100 33q2 16 6.5 51t8.5 77t7 82t3 64l72 10q0 -135 44 -190t154 -55q78 0 131.5 34.5t53.5 86.5q0 25 -10.5 47t-38 45.5t-73.5 52.5t-116 65q-117 59 -170 120t-53 134q0 63 28.5 116.5t78.5 92.5t120 61.5t150 22.5q41 0 77.5 -5t65.5 -11q33 -8 61 -16l5 -11 q-8 -35 -17 -73q-6 -35 -12 -80t-10 -97l-76 -6q0 12 2 23q0 10 1 19t1 18q0 74 -40 107.5t-128 33.5q-70 0 -118 -33t-48 -80q0 -49 41 -92t137 -92q82 -43 137.5 -79t89 -68.5t47 -65.5t13.5 -72q0 -59 -30.5 -112.5t-82 -94t-119 -64.5t-143.5 -24q-57 0 -101 6.5 t-77 14.5q-37 8 -66 22z" />
<glyph unicode="t" horiz-adv-x="675" d="M43 842l10 61q49 25 95.5 56.5t80.5 60.5q41 35 78 70l41 -17q-4 -16 -6 -39q-4 -20 -5 -49t-5 -65l301 6l6 -6l-18 -109l-297 6q-6 -98 -10.5 -225t-4.5 -287q0 -104 36 -147t124 -43q25 0 49.5 5t44.5 13q23 8 45 19l21 -54q-47 -35 -86 -61q-35 -23 -69 -42.5 t-52 -19.5q-139 0 -196.5 56.5t-57.5 191.5v504q0 55 -24.5 76.5t-92.5 25.5z" />
<glyph unicode="u" horiz-adv-x="1107" d="M57 813l9 76q47 8 99 18.5t95 20.5q51 10 98 22l13 -24q-10 -27 -19.5 -91.5t-17.5 -149.5t-12.5 -181t-4.5 -187q0 -200 162 -200h2q72 0 134.5 40t113.5 76v476q0 61 -22.5 85.5t-79.5 24.5q-4 0 -12.5 -1t-16.5 -1h-20l8 74q53 8 109.5 17.5t103.5 19.5q53 10 102 22 l12 -24q-10 -23 -18 -91.5t-14.5 -165t-9.5 -214t-3 -240.5q0 -94 84 -94q25 0 47.5 7t38.5 17q20 10 37 27l29 -33q-33 -45 -64 -82q-29 -31 -58.5 -56.5t-55.5 -25.5q-168 0 -183 166l-10 4q-98 -76 -177 -123t-107 -47q-133 0 -203 60.5t-70 177.5l8 498q0 110 -74 110 h-1q-14 0 -35 -4q-8 -2 -17 -4z" />
<glyph unicode="v" horiz-adv-x="911" d="M-20 860l12 68q35 -2 67 -2h103q47 0 91 1t79 5q39 4 76 8l4 -10l-13 -64q-72 -4 -96 -14t-24 -39q0 -12 7 -46t19 -81t27.5 -104.5t32.5 -114.5q37 -135 88 -301h8q115 285 181.5 442.5t66.5 194.5q0 29 -19.5 39t-68.5 10h-78l-8 12l10 64q33 -2 69 -2h144h110 q29 0 58 2l-15 -76q-23 -4 -38 -11t-29.5 -24.5t-29.5 -45.5t-34 -73l-297 -698l-110 -35q-53 172 -103 326q-20 66 -41.5 133.5t-42 128.5t-37 112.5t-26.5 84.5q-35 98 -139 102z" />
<glyph unicode="w" horiz-adv-x="1443" d="M-8 860l12 68q35 -2 66 -2h98q47 0 89 1t77 5q39 4 74 8l4 -10l-13 -64q-68 -4 -92 -14t-24 -39q0 -12 7 -47t18 -82t26.5 -104.5t32.5 -114.5q37 -135 84 -299h8q78 201 133 337t84 214q-23 66 -52.5 100.5t-93.5 34.5l-4 8l13 68q35 -2 65 -2h98q45 0 88.5 1t77.5 3 q39 2 74 6l4 -10l-12 -64q-72 -4 -94.5 -13t-22.5 -36q0 -12 7 -46t18.5 -81t27 -104.5t31.5 -114.5q37 -135 84 -301h8q111 285 175.5 442.5t64.5 194.5q0 29 -18.5 40t-65.5 11h-76l-8 12l10 64q29 -2 64 -2q29 -2 65.5 -2h73.5h108q29 0 60 2l-14 -76q-41 -4 -66 -35 t-61 -119l-289 -698l-109 -35q-31 102 -63 209q-29 92 -60.5 197.5t-60.5 197.5h-12l-228 -569l-110 -35q-53 172 -101 326q-20 66 -40.5 133.5t-39 128.5t-35 112.5t-26.5 84.5q-35 100 -135 102z" />
<glyph unicode="x" horiz-adv-x="972" d="M16 860l13 70q41 -2 77 -2q33 -2 69 -2h61q43 0 80.5 1t66.5 3q33 2 61 4l5 -10l-13 -64q-49 0 -70.5 -8t-21.5 -31q0 -20 14.5 -43.5t34.5 -52.5l113 -164l125 158q29 35 46 58.5t17 45.5q0 16 -17.5 21.5t-70.5 5.5l-4 8l10 68h150h46t48 2q25 2 51 4l6 -10l-12 -66 q-33 -10 -77 -52t-95 -102l-176 -206l188 -269q53 -76 99.5 -111.5t107.5 -41.5l4 -8l-12 -70q-35 0 -70 2q-29 0 -60 1t-56 1q-31 0 -71 -2t-75 -4q-41 -4 -84 -6l-4 10l12 63q51 2 73 11.5t22 31.5q0 27 -35 76l-150 209q-29 -35 -64.5 -78t-67 -85t-53 -74.5t-21.5 -47.5 q0 -20 18 -26t72 -10l4 -9l-13 -67q-35 2 -67 4q-29 2 -57.5 3t-45.5 1q-23 0 -43 -1t-38 -3q-23 -2 -41 -2l-7 10l13 64q27 14 48 29.5t41.5 36t44 48t56.5 66.5l176 205l-155 221q-35 49 -59.5 79.5t-48 51t-50.5 31t-64 16.5z" />
<glyph unicode="y" horiz-adv-x="913" d="M-18 860l12 68q35 -2 67 -2h103q45 0 89 1t79 5q41 4 78 8l4 -10l-13 -64q-72 -4 -96 -14t-24 -39q0 -14 8 -48t20.5 -80t28.5 -101.5t33 -110.5q39 -129 92 -287h8q35 84 77 185.5t78 192.5t60.5 157.5t24.5 83.5q0 53 -78 53h-94l-4 8l12 68q31 -2 65 -4q29 -2 66 -3 t76 -1h114q31 0 60 2l-15 -76q-47 -8 -69.5 -32.5t-44.5 -84.5l-264 -622q-80 -182 -136.5 -300t-105.5 -186.5t-101 -95.5q-47 -25 -109 -25h-9q-8 0 -22.5 14.5t-30 34t-26.5 39t-11 29.5l10 15q119 0 224.5 95t174.5 265q-25 76 -58.5 176t-70.5 204.5t-73.5 203 t-65.5 172.5q-25 51 -56.5 73.5t-82.5 24.5z" />
<glyph unicode="z" horiz-adv-x="942" d="M74 47l557 801l-256 -12q-49 -4 -83 -13.5t-55.5 -31t-31.5 -55.5t-17 -85l-79 -12q4 47 10 98q4 43 7 96.5t5 102.5l12 10l263 -16l430 -10l16 -43q-109 -141 -206 -272.5t-174 -239t-130 -184.5t-76 -109l303 18q82 6 126 63.5t67 186.5l82 10q-10 -55 -19 -110 q-6 -47 -11 -105.5t-5 -114.5l-33 -32l-575 18l-107 -10z" />
<glyph unicode="{" horiz-adv-x="632" d="M94 506l8 43q74 20 132.5 62t58.5 108q0 35 -13.5 81t-28.5 95t-28.5 100.5t-13.5 96.5q0 47 16.5 90t49 75.5t80.5 52t112 19.5q20 0 40.5 -2t37.5 -4q20 -4 39 -6l6 -10l-17 -62q-18 2 -34 4q-14 2 -30.5 4t-29.5 2q-68 0 -96.5 -43t-28.5 -98q0 -35 8.5 -82t19.5 -97 t19.5 -99.5t8.5 -87.5q0 -47 -13.5 -82t-35 -59.5t-48 -40t-53.5 -23.5v-13q59 -23 104.5 -71.5t45.5 -143.5q0 -41 -8.5 -91t-19.5 -101t-19.5 -99.5t-8.5 -82.5q0 -55 29 -97.5t98 -42.5q35 0 66 6q18 2 37 7l6 -13l-17 -57q-14 -4 -32 -8q-16 -4 -36 -6t-42 -2 q-61 0 -108.5 19.5t-79 52t-49 75.5t-17.5 90q0 45 13.5 95.5t28.5 98.5t28.5 92t13.5 75q0 78 -57.5 119.5t-141.5 60.5z" />
<glyph unicode="|" horiz-adv-x="761" d="M311 53v183.5t1 175.5t1 153l2 1065l123 23l23 -13q-4 -203 -6 -395q-2 -82 -3 -170t-2 -173t-1 -164v-142v-694q0 -209 2 -430l-121 -23l-19 12v414v178z" />
<glyph unicode="}" horiz-adv-x="632" d="M43 -250l16 62q18 -4 35 -7q14 -2 29.5 -3t30.5 -1q68 0 96.5 43t28.5 99q0 35 -8.5 82t-19.5 97t-19.5 99t-8.5 88q0 47 13.5 82t35 59.5t48 40t53.5 23.5v12q-59 23 -104.5 72t-45.5 143q0 41 8.5 91.5t19.5 101.5t19.5 99t8.5 83q0 55 -29 97t-98 42q-16 0 -34 -2 t-34 -4q-18 -4 -35 -6l-6 12l16 58q14 4 33 8q16 4 35.5 6t42.5 2q61 0 108.5 -19.5t79 -52t49 -75.5t17.5 -90q0 -45 -13.5 -95.5t-28.5 -98.5t-28.5 -92t-13.5 -75q0 -78 57.5 -120t141.5 -60l-9 -43q-74 -20 -132 -62.5t-58 -107.5q0 -35 13.5 -81t28.5 -95t28.5 -100.5 t13.5 -96.5q0 -47 -16.5 -90t-49 -75.5t-81 -52t-111.5 -19.5q-45 0 -78 6q-20 2 -39 6z" />
<glyph unicode="~" d="M88 457v10l156 182l32 8q41 0 110 -13t142.5 -30.5t139 -31t100.5 -13.5q18 0 39.5 16.5t42.5 39.5q23 25 47 57h12l45 -43v-10l-155 -183l-33 -8q-41 0 -109.5 13.5t-142.5 31t-139.5 30.5t-100.5 13q-18 0 -40.5 -17t-43.5 -40q-23 -25 -45 -55h-12z" />
<glyph unicode="&#xa1;" horiz-adv-x="583" d="M181 -473l106 971l57 14l23 -16l16 -934l-14 -20l-170 -37zM215 824q0 53 35 90t94 37t87 -36t28 -81q0 -53 -34 -90t-93 -37q-57 0 -87 34.5t-30 82.5z" />
<glyph unicode="&#xa2;" horiz-adv-x="868" d="M74 428q0 102 31.5 192.5t88 160t133 112.5t169.5 53l36 393l54 9l12 -19l-37 -379q47 -2 88 -8t72 -12q37 -8 65 -19l7 -14q-10 -37 -19 -82q-8 -39 -15 -90t-9 -111l-84 -6v64q0 61 -31 103t-84 56l-70 -716q10 -2 17.5 -2h17.5q43 0 84 10t74 22q37 14 74 35l12 -4 l22 -63q-51 -39 -102 -70q-43 -27 -92 -47.5t-86 -20.5q-23 0 -33 2l-27 -286l-53 -6l-10 14l27 287q-154 29 -243 145.5t-89 296.5zM238 498q0 -141 47 -236.5t133 -130.5l67 709q-121 -4 -184 -93t-63 -249z" />
<glyph unicode="&#xa3;" horiz-adv-x="1075" d="M78 84q213 141 213 334v98q-4 47 -27.5 63.5t-101.5 20.5l-8 12l14 70l123 23v34q0 111 28.5 200t81 152.5t126 98.5t163.5 35q61 0 120.5 -8.5t90.5 -22.5l10 -23l-47 -129l-39 -6q-127 68 -211 68q-178 0 -186 -254l-6 -160h117.5t105.5 2q55 2 107 4l6 -6l-21 -108 q-47 0 -100 2q-45 2 -102.5 3t-116.5 1l-4 -162q-10 -166 -131 -266l112 22q45 0 91 -7t91.5 -15t88.5 -15.5t82 -7.5q139 0 153 154l37 -4q27 -61 27 -119q0 -84 -45.5 -138.5t-110.5 -54.5q-55 0 -119.5 14.5t-132.5 32t-134.5 32t-127.5 14.5q-90 0 -172 -62l-14 8z" />
<glyph unicode="&#xa4;" horiz-adv-x="909" d="M61 1051l5 24l79 53q18 -20 41 -43q18 -20 43 -45.5t54 -52.5q35 23 76.5 36t89.5 13q47 0 89 -13t76 -36q27 29 51.5 56.5t45.5 50.5q23 25 43 47l26 -6l56 -82l-144 -142q57 -76 58 -176q0 -45 -12.5 -85t-35.5 -75q29 -27 54.5 -51t46.5 -43q23 -23 45 -41l-6 -22 l-82 -62l-135 136q-78 -55 -176 -56q-96 0 -175 56l-96 -97l-41 -41l-22 6l-47 80q18 16 41 39q18 16 41.5 40t50.5 48q-51 74 -51 168q0 96 55 174q-29 29 -54.5 53.5t-46.5 45.5zM248 735q0 -84 58.5 -142t142.5 -58q86 0 144 58t58 142q0 86 -58 144.5t-144 58.5 q-84 0 -142.5 -58.5t-58.5 -144.5z" />
<glyph unicode="&#xa5;" horiz-adv-x="1124" d="M63 961l15 73q35 -2 69 -4q29 -2 64 -2h65q37 0 80 2t80 5t62 5l24 2l10 -20l-6 -70q-43 -4 -68.5 -9t-38.5 -10t-17.5 -12.5t-4.5 -17.5q0 -23 25 -74h-2l164 -321l190 326q10 18 18.5 36.5t8.5 38.5q0 16 -30 26.5t-79 14.5q0 4 -1 7.5t-1 7.5l10 75q35 -4 72 -6 q31 -4 65.5 -5t63.5 -1h53.5t53.5 2q29 2 57 4l10 -14l-12 -76q-41 -6 -67.5 -16t-46 -27.5t-39 -45.5t-46.5 -69l-86 -139l236 4l12 -18l-6 -62h-289l-72 -116q-16 -35 -20 -80l375 8l12 -18l-6 -62h-383q0 -29 -1 -59.5t-1 -59.5q0 -57 12 -77.5t53 -20.5q10 0 19.5 1 t19.5 1t20.5 1t18.5 1h17l4 -16l-19 -78q-43 0 -84 2q-35 0 -73.5 1t-67.5 1q-31 0 -66.5 -3t-66.5 -7q-37 -6 -72 -10l10 88q53 8 81 22t40.5 40t13.5 67t1 106q-92 0 -184.5 -1t-184.5 -1l-10 14l10 60h362q-8 27 -17 52.5t-26 55.5l-49 88q-68 0 -135 -1t-135 -1l-10 15 l10 59h229q-39 72 -64.5 126t-54 92t-67.5 57.5t-102 23.5z" />
<glyph unicode="&#xa6;" horiz-adv-x="761" d="M311 340l131 25l7 -7v-591q0 -152 2 -295l-121 -23l-19 12v879zM313 758q0 219 1 436t1 436l123 23l23 -13q-4 -150 -6 -301q-2 -129 -4 -281.5t-2 -287.5l-127 -18z" />
<glyph unicode="&#xa7;" horiz-adv-x="1048" d="M72 717q0 90 63.5 179t173.5 155q4 57 28.5 107t65.5 88t94.5 60.5t112.5 22.5q39 0 76 -8t65.5 -22.5t45 -32t16.5 -37.5q0 -18 -4 -43t-9 -48.5t-12.5 -43t-13.5 -25.5h-29q-29 72 -88 116t-120 44q-49 0 -82 -36t-33 -91q0 -63 41 -115.5t102.5 -100.5t134 -96.5 t134 -102.5t102.5 -117.5t41 -143.5q0 -51 -17.5 -103.5t-50 -98.5t-77 -86t-95.5 -66q-2 -47 -28.5 -97.5t-72.5 -92.5t-107.5 -69.5t-131.5 -27.5q-104 0 -171.5 46t-67.5 118q0 47 10 102t20 72h31q20 -111 85 -176.5t157 -65.5q66 0 111.5 42t45.5 106q0 63 -40.5 114.5 t-101 99.5t-131.5 96t-131 104.5t-101 122t-41 151.5zM186 784q0 -57 36 -108t90.5 -100.5t120 -97.5t125.5 -99t107.5 -108.5t63.5 -123.5q129 82 129 207q0 53 -36 102.5t-91 98.5t-121.5 97t-126 100.5t-106.5 107.5t-62 119q-70 -41 -99.5 -87.5t-29.5 -107.5z" />
<glyph unicode="&#xa8;" horiz-adv-x="815" d="M143 1247q0 41 29 72t74 31q41 0 62.5 -27t21.5 -61q0 -41 -29 -72t-74 -31q-41 0 -62.5 27.5t-21.5 60.5zM483 1247q0 41 29 72t74 31q41 0 62.5 -27t21.5 -61q0 -41 -29 -72t-74 -31q-41 0 -62.5 27.5t-21.5 60.5z" />
<glyph unicode="&#xa9;" horiz-adv-x="1419" d="M86 600q0 129 48 242.5t133 198.5t199 134.5t243 49.5t243.5 -49.5t198.5 -134.5t133 -198.5t49 -242.5t-49 -242.5t-133 -198.5t-198.5 -134.5t-243.5 -49.5t-243 49.5t-199 134.5t-133 198.5t-48 242.5zM172 600q0 -113 42 -211t114.5 -172t171 -117t209.5 -43t209 43 t171.5 117t115.5 172t42 211t-42 211t-115.5 172t-172 117t-208.5 43q-111 0 -209.5 -43t-171 -117t-114.5 -172t-42 -211zM387 588q0 76 25.5 142.5t71.5 114.5t112 75.5t145 27.5q35 0 70 -4t63 -8q33 -6 64 -12l4 -9q-4 -25 -10 -53q-4 -25 -9 -58.5t-8 -72.5l-67 -4v16 q0 8 1 15.5t1 17.5q0 39 -28.5 64.5t-102.5 25.5q-92 0 -144.5 -60.5t-52.5 -182.5q0 -127 48 -204t153 -77q72 0 108.5 37t53.5 117l65 4q-6 -29 -12 -60q-4 -27 -8 -58.5t-6 -59.5l-9 -15q-27 -12 -61 -20q-29 -8 -71 -13.5t-89 -5.5q-78 0 -136 25.5t-96 69t-56.5 101.5 t-18.5 124z" />
<glyph unicode="&#xaa;" horiz-adv-x="657" d="M61 885q0 39 19.5 67.5t54.5 38.5l250 62l2 41q0 59 -29.5 92t-83.5 33q-31 0 -58.5 -10.5t-49.5 -20.5q-25 -14 -47 -31l-10 4l-19 68q49 25 92 47q37 18 75 33.5t60 15.5q104 0 153.5 -48t49.5 -124q0 -16 -4 -53t-8 -79t-8 -82t-4 -65q0 -55 49 -55q14 0 26.5 4 t22.5 8q10 6 22 15l19 -25q-16 -29 -37 -51q-16 -20 -38.5 -39.5t-45.5 -28.5q-115 0 -125 103l-8 2q-43 -41 -83 -69.5t-62 -28.5q-74 0 -124.5 50t-50.5 126zM193 899q0 -35 23.5 -58.5t57.5 -23.5q23 0 51.5 13.5t53.5 33.5l4 127l-156 -45q-35 -10 -34 -47z" />
<glyph unicode="&#xab;" horiz-adv-x="874" d="M41 434v31q55 55 117 115l113.5 113.5t121.5 125.5l45 -31l2 -20l-219 -305l219 -318l-2 -20l-45 -31q-59 59 -121.5 119.5t-113.5 110.5q-61 57 -117 110zM381 434v31q55 55 117 115l113.5 113.5t121.5 125.5l45 -31l2 -20l-219 -305l219 -318l-2 -20l-45 -31 q-59 59 -121.5 119.5t-113.5 110.5q-61 57 -117 110z" />
<glyph unicode="&#xac;" d="M37 498l22 100q88 -2 177 -2h313q61 0 127.5 1t122.5 5q66 2 127 6l12 -20q-4 -37 -8 -76q-4 -35 -6 -75t-2 -75v-192q0 -45 2 -86l-101 -23l-18 13v137q0 59 1 132t1 140l-289 -2q-70 0 -150.5 -1t-152.5 -1h-166z" />
<glyph unicode="&#xad;" horiz-adv-x="663" d="M74 446l12 107l356 41q68 6 103 12l30 6l15 -18l-10 -111l-492 -53z" />
<glyph unicode="&#xae;" horiz-adv-x="958" d="M61 1038q0 86 33 163t89.5 133.5t133 89t162.5 32.5t163 -32.5t133 -89t89 -133.5t33 -163t-33 -162.5t-89 -133t-133 -89t-163 -32.5t-162.5 32.5t-133 89t-89.5 133t-33 162.5zM133 1038q0 -72 27.5 -134t75 -109t110 -75t133.5 -28q72 0 134.5 28t109.5 75t74.5 109.5 t27.5 133.5q0 72 -27.5 134.5t-74.5 109.5t-109.5 74.5t-134.5 27.5t-134 -27.5t-109.5 -74.5t-75 -109.5t-27.5 -134.5zM287 842l4 43q37 4 44 18.5t7 59.5v227q0 23 -5 30t-20 7h-22l-4 8l6 35q18 -2 35 -2h53h23q10 0 20 1t21 1q10 0 22 2q78 0 122 -30t44 -83t-31 -82.5 t-67 -46.5l59 -88q43 -66 84 -65l6 -9q0 -27 -19.5 -30.5t-60.5 -3.5t-76 65l-59 113h-51q-2 -23 -2 -38.5v-29.5q0 -37 6 -47t43 -10l4 -8l-4 -35h-23q-10 0 -21 1t-22 1h-24q-14 0 -29.5 -1t-30.5 -1q-16 -2 -32 -2zM424 1065q10 0 26.5 -2t32.5 -4q16 6 40 24.5t24 61.5 t-29 60.5t-78 17.5q-12 -1 -12 -17q-2 -35 -3 -70.5t-1 -70.5z" />
<glyph unicode="&#xaf;" horiz-adv-x="815" d="M102 1235l21 92q57 -2 113 -2h202q39 0 84 1t86 5q47 2 94 6l13 -20l-15 -96l-290 -2q-47 0 -97.5 -1t-95.5 -1h-102z" />
<glyph unicode="&#xb0;" horiz-adv-x="618" d="M51 1071q0 53 20.5 100.5t55.5 82t82 55t100 20.5t100.5 -20.5t82 -55t55 -82t20.5 -100.5t-20.5 -100t-55 -82t-82 -55.5t-100.5 -20.5t-100 20.5t-82 55.5t-55.5 82t-20.5 100zM137 1071q0 -72 50.5 -122t121.5 -50q72 0 122 50t50 122t-50 122t-122 50t-122 -50 t-50 -122z" />
<glyph unicode="&#xb1;" d="M37 -135l22 100q88 -2 177 -2h313q61 0 137 1t143 5q66 2 112 3t46 3l12 -20l-16 -105q-123 0 -272.5 -1t-286.5 -1t-240.5 -1t-134.5 -1zM37 524l22 101q63 -2 131 -2h265q0 98 1 195t1 196l104 16l21 -12q-4 -70 -7 -137q-4 -59 -5 -128t-1 -130q61 0 134 1t137 5 q74 2 147 6l12 -21l-16 -104q-104 0 -206.5 -1t-207.5 -1v-254q0 -63 2 -123l-100 -22l-18 12v127q0 55 1 124.5t1 135.5q-68 0 -139.5 -1t-131.5 -1h-135z" />
<glyph unicode="&#xb2;" horiz-adv-x="673" d="M49 756l141 158q98 119 147.5 210t47.5 154q0 92 -104 92q-113 0 -189 -127h-14l-21 84q20 35 50 64.5t65 52.5t72 35t73 12q100 0 161 -48t61 -126q0 -39 -15.5 -84t-50.5 -101.5t-91 -130t-138 -167.5l6 -11h168q66 0 92.5 23t42.5 94l78 8q-8 -37 -17 -75 q-6 -35 -12 -75t-10 -77l-19 -12q-86 2 -167 4q-70 2 -141.5 4t-117.5 2l-86 -14z" />
<glyph unicode="&#xb3;" horiz-adv-x="600" d="M63 819l13 15q55 -16 108 -17q86 0 141.5 38t55.5 93q0 66 -51 94.5t-162 28.5l-10 10l-8 66l86 18q47 23 77.5 60t30.5 76t-24.5 61.5t-65.5 22.5q-35 0 -75 -15.5t-73 -42.5h-14l-20 76q6 6 30.5 20.5t57.5 30t70.5 26.5t72.5 11q80 0 131 -43t51 -111 q0 -53 -38.5 -101t-104.5 -79v-10q178 -49 178 -180q0 -47 -31.5 -94.5t-83 -85t-116 -61t-129.5 -23.5q-51 0 -72.5 26.5t-24.5 89.5z" />
<glyph unicode="&#xb4;" horiz-adv-x="815" d="M264 1110q55 59 109.5 121.5t99.5 116.5q51 59 98 116l21 -4l78 -84l-2 -22q-53 -41 -109 -86q-49 -41 -109.5 -91.5t-125.5 -109.5l-19 4z" />
<glyph unicode="&#xb6;" horiz-adv-x="1148" d="M86 911q0 82 29.5 156t86 128t136.5 86t180 32q78 0 150.5 -4t113.5 -4h73t85 2q47 2 98 4l-12 -86l-4 -8q-94 4 -127 -16.5t-37 -76.5q-4 -31 -8 -91t-6 -137t-4 -163t-3 -165t-1 -146.5v-106.5q0 -125 -13.5 -223t-53.5 -166.5t-113.5 -104.5t-194.5 -36 q-53 0 -102.5 11t-88.5 35t-61.5 60.5t-22.5 85.5q0 41 23.5 94.5t54.5 88.5h31q0 -139 54 -209t143 -70q63 0 104 21.5t63.5 67.5t30.5 121t8 183v910q-2 20 -8 24t-47 4q-51 0 -89 -22.5t-62.5 -62.5t-37 -95t-12.5 -121q0 -76 8.5 -137t26 -113.5t44 -99.5t63.5 -96v-31 q-98 8 -188.5 40t-159 90.5t-109.5 144.5t-41 202z" />
<glyph unicode="&#xb7;" horiz-adv-x="487" d="M123 461q0 53 33.5 90t93.5 37q57 0 87 -35t30 -82q0 -53 -35 -90t-94 -37t-87 36t-28 81z" />
<glyph unicode="&#xb8;" horiz-adv-x="815" d="M203 -403q0 20 17.5 55t33.5 59h18q2 -57 33 -87t80 -30q41 0 69.5 22t28.5 56q0 18 -15 38t-41 40.5t-56.5 38.5t-61.5 37l68 221h88l-51 -149q25 -18 55.5 -38t57 -42.5t44 -48t17.5 -54.5q0 -41 -22.5 -75.5t-58.5 -60t-79 -41t-86 -15.5q-23 0 -47.5 5t-45 14 t-33.5 22.5t-13 32.5z" />
<glyph unicode="&#xb9;" horiz-adv-x="509" d="M55 1381l6 65q12 2 58.5 7t93.5 14q96 14 127 19t33 5l10 -31q-23 -20 -34 -41.5t-15 -62.5q-2 -43 -4 -107.5t-4 -134t-3 -133t-1 -102.5q0 -49 13 -68.5t48 -19.5h22.5t22.5 2q10 0 21 2l4 -6l-15 -74q-33 0 -65 2q-29 0 -59.5 1t-55.5 1q-29 0 -60.5 -2t-60.5 -6 q-33 -4 -65 -6l8 71q59 4 88 25.5t29 79.5v428q0 47 -16.5 59.5t-51.5 12.5q-10 0 -21.5 -1.5t-21.5 -3.5q-12 -2 -25 -2z" />
<glyph unicode="&#xba;" horiz-adv-x="692" d="M57 995q0 72 23.5 132.5t64.5 104.5t98.5 68.5t125.5 24.5q123 0 194.5 -79t71.5 -214q0 -72 -22.5 -132t-64.5 -104t-98 -69t-124 -25q-123 0 -196 81t-73 212zM201 1038q0 -121 41.5 -186.5t113.5 -65.5q63 0 98 50.5t35 142.5q0 121 -41.5 186.5t-113.5 65.5 q-63 0 -98 -50.5t-35 -142.5z" />
<glyph unicode="&#xbb;" horiz-adv-x="874" d="M94 145l219 306l-219 317l2 20l45 31q59 -59 120 -119.5t114 -109.5q59 -57 119 -111v-30q-59 -55 -119 -115q-53 -51 -113.5 -113.5t-120.5 -126.5l-45 31zM434 145l219 306l-219 317l2 20l45 31q59 -59 120 -119.5t114 -109.5q59 -57 119 -111v-30q-59 -55 -119 -115 q-53 -51 -113.5 -113.5t-120.5 -126.5l-45 31z" />
<glyph unicode="&#xbc;" horiz-adv-x="1402" d="M55 1209l6 65q12 2 58.5 7t93.5 14q96 14 127 19t33 5l10 -31q-23 -20 -34 -41.5t-15 -62.5q-2 -43 -4 -107.5t-4 -134t-3 -133t-1 -102.5q0 -49 13 -68.5t48 -19.5h22.5t22.5 2q10 0 21 2l4 -6l-15 -74q-33 0 -65 2q-29 0 -59.5 1t-55.5 1q-29 0 -60.5 -2t-60.5 -6 q-33 -4 -65 -6l8 71q59 4 88 25.5t29 79.5v428q0 47 -16.5 59.5t-51.5 12.5q-10 0 -21.5 -1.5t-21.5 -3.5q-12 -2 -25 -2zM141 -131q78 119 158 240q68 104 145.5 225t146.5 229l525 826l80 -39l10 -29q-102 -154 -201 -301q-43 -63 -88 -132t-89 -136.5t-85 -132 t-74 -117.5q-70 -113 -146.5 -234t-142.5 -225q-78 -121 -151 -238l-78 39zM786 219l5 70l352 481l6 2l80 -12v-449h112l11 -14l-13 -90l-110 4q0 -37 1 -73t3 -64q2 -33 4 -62l-8 -12l-125 -14l-10 12q2 35 4 72q2 31 3 68.5t1 74.5zM905 311h197v256h-12z" />
<glyph unicode="&#xbd;" horiz-adv-x="1460" d="M55 1209l6 65q12 2 58.5 7t93.5 14q96 14 127 19t33 5l10 -31q-23 -20 -34 -41.5t-15 -62.5q-2 -43 -4 -107.5t-4 -134t-3 -133t-1 -102.5q0 -49 13 -68.5t48 -19.5h22.5t22.5 2q10 0 21 2l4 -6l-15 -74q-33 0 -65 2q-29 0 -59.5 1t-55.5 1q-29 0 -60.5 -2t-60.5 -6 q-33 -4 -65 -6l8 71q59 4 88 25.5t29 79.5v428q0 47 -16.5 59.5t-51.5 12.5q-10 0 -21.5 -1.5t-21.5 -3.5q-12 -2 -25 -2zM139 -131q78 119 158 240q68 104 145.5 225t146.5 229l525 826l80 -39l10 -29q-102 -154 -201 -301q-43 -63 -88 -132t-89 -136.5t-85 -132 t-74 -117.5q-70 -113 -146.5 -234t-142.5 -225q-78 -121 -151 -238l-78 39zM833 37l141 158q98 119 147.5 210t47.5 154q0 92 -104 92q-113 0 -189 -127h-14l-21 84q20 35 50 64.5t65 52.5t72 35t73 12q100 0 161 -48t61 -126q0 -39 -15.5 -84t-50.5 -101.5t-91 -130 t-138 -167.5l6 -11h168q66 0 92.5 23t42.5 94l78 8q-8 -37 -17 -75q-6 -35 -12 -75t-10 -77l-19 -12q-86 2 -167 4q-70 2 -141.5 4t-117.5 2l-86 -14z" />
<glyph unicode="&#xbe;" horiz-adv-x="1411" d="M63 647l13 15q55 -16 108 -17q86 0 141.5 38t55.5 93q0 66 -51 94.5t-162 28.5l-10 10l-8 66l86 18q47 23 77.5 60t30.5 76t-24.5 61.5t-65.5 22.5q-35 0 -75 -15.5t-73 -42.5h-14l-20 76q6 6 30.5 20.5t57.5 30t70.5 26.5t72.5 11q80 0 131 -43t51 -111 q0 -53 -38.5 -101t-104.5 -79v-10q178 -49 178 -180q0 -47 -31.5 -94.5t-83 -85t-116 -61t-129.5 -23.5q-51 0 -72.5 26.5t-24.5 89.5zM148 -129q78 119 158 240q68 104 145.5 225t146.5 229l525 826l80 -39l10 -29q-102 -154 -201 -301q-43 -63 -88 -132t-89 -136.5 t-85 -132t-74 -117.5q-70 -113 -146.5 -234t-142.5 -225q-78 -121 -151 -238l-78 39zM794 219l5 70l352 481l6 2l80 -12v-449h112l11 -14l-13 -90l-110 4q0 -37 1 -73t3 -64q2 -33 4 -62l-8 -12l-125 -14l-10 12q2 35 4 72q2 31 3 68.5t1 74.5zM913 311h197v256h-12z" />
<glyph unicode="&#xbf;" horiz-adv-x="737" d="M63 -161q0 86 32 145t81 104.5t109.5 83t117.5 78.5l6 19l-43 194l6 17l125 34l19 -8l49 -246l-6 -28l-244 -156q-47 -33 -82 -76t-35 -100q0 -61 30 -108.5t85 -79t132 -49t169 -23.5l4 -23l-67 -108l-29 -8q-94 4 -178 30.5t-146.5 71.5t-98.5 105.5t-36 130.5z M315 820q0 53 35 90t94 37t87 -36t28 -81q0 -53 -34 -90t-93 -37q-57 0 -87 34.5t-30 82.5z" />
<glyph unicode="&#xc0;" horiz-adv-x="1183" d="M-37 -6l17 96q57 6 90.5 39t68.5 119l400 1046l129 35h16q51 -186 104 -377q23 -82 49.5 -172t55.5 -183t58.5 -186.5t58.5 -179.5q12 -39 27.5 -64.5t38 -43t54 -25.5t76.5 -12l4 -8l-14 -84q-43 0 -82 2q-35 2 -71.5 3t-63.5 1q-59 0 -113.5 -3t-97.5 -7 q-51 -6 -94 -10l-6 14l8 80q106 8 144 24.5t38 53.5q0 39 -18 98l-68 223q-18 0 -46 1t-57.5 1h-59h-50.5q-59 0 -123.5 -6t-99.5 -10l-76 -213q-18 -55 -18 -80q0 -45 28.5 -64.5t94.5 -19.5h116l4 -8l-12 -88q-45 2 -92 6q-41 4 -91 6t-102 2q-37 0 -76.5 -1t-72.5 -3 q-39 -2 -76 -2zM290 1612l33 98l19 12q63 -37 131 -73q59 -33 131.5 -73t144.5 -77l-12 -49l-17 -10q-82 31 -156.5 57.5t-133.5 48.5q-68 23 -131 45zM373 559h180q41 0 98.5 3t91.5 7l-161 537h-15z" />
<glyph unicode="&#xc1;" horiz-adv-x="1183" d="M-37 -6l17 96q57 6 90.5 39t68.5 119l400 1046l129 35h16q51 -186 104 -377q23 -82 49.5 -172t55.5 -183t58.5 -186.5t58.5 -179.5q12 -39 27.5 -64.5t38 -43t54 -25.5t76.5 -12l4 -8l-14 -84q-43 0 -82 2q-35 2 -71.5 3t-63.5 1q-59 0 -113.5 -3t-97.5 -7 q-51 -6 -94 -10l-6 14l8 80q106 8 144 24.5t38 53.5q0 39 -18 98l-68 223q-18 0 -46 1t-57.5 1h-59h-50.5q-59 0 -123.5 -6t-99.5 -10l-76 -213q-18 -55 -18 -80q0 -45 28.5 -64.5t94.5 -19.5h116l4 -8l-12 -88q-45 2 -92 6q-41 4 -91 6t-102 2q-37 0 -76.5 -1t-72.5 -3 q-39 -2 -76 -2zM373 559h180q41 0 98.5 3t91.5 7l-161 537h-15zM475 1499q72 37 144.5 77t131.5 73q68 37 132 73l18 -12l33 -98l-8 -21q-63 -23 -132 -45q-59 -23 -134.5 -49.5t-155.5 -56.5l-17 10z" />
<glyph unicode="&#xc2;" horiz-adv-x="1183" d="M-37 -6l17 96q57 6 90.5 39t68.5 119l400 1046l129 35h16q51 -186 104 -377q23 -82 49.5 -172t55.5 -183t58.5 -186.5t58.5 -179.5q12 -39 27.5 -64.5t38 -43t54 -25.5t76.5 -12l4 -8l-14 -84q-43 0 -82 2q-35 2 -71.5 3t-63.5 1q-59 0 -113.5 -3t-97.5 -7 q-51 -6 -94 -10l-6 14l8 80q106 8 144 24.5t38 53.5q0 39 -18 98l-68 223q-18 0 -46 1t-57.5 1h-59h-50.5q-59 0 -123.5 -6t-99.5 -10l-76 -213q-18 -55 -18 -80q0 -45 28.5 -64.5t94.5 -19.5h116l4 -8l-12 -88q-45 2 -92 6q-41 4 -91 6t-102 2q-37 0 -76.5 -1t-72.5 -3 q-39 -2 -76 -2zM308 1505q49 37 99 77t91 75q47 39 92 76h29q45 -37 92 -76q41 -35 90 -75t101 -77l-29 -45l-19 -2q-72 41 -140 77t-109 56q-43 -20 -110 -55t-140 -78l-19 2zM373 559h180q41 0 98.5 3t91.5 7l-161 537h-15z" />
<glyph unicode="&#xc3;" horiz-adv-x="1183" d="M-37 -6l17 96q57 6 90.5 39t68.5 119l400 1046l129 35h16q51 -186 104 -377q23 -82 49.5 -172t55.5 -183t58.5 -186.5t58.5 -179.5q12 -39 27.5 -64.5t38 -43t54 -25.5t76.5 -12l4 -8l-14 -84q-43 0 -82 2q-35 2 -71.5 3t-63.5 1q-59 0 -113.5 -3t-97.5 -7 q-51 -6 -94 -10l-6 14l8 80q106 8 144 24.5t38 53.5q0 39 -18 98l-68 223q-18 0 -46 1t-57.5 1h-59h-50.5q-59 0 -123.5 -6t-99.5 -10l-76 -213q-18 -55 -18 -80q0 -45 28.5 -64.5t94.5 -19.5h116l4 -8l-12 -88q-45 2 -92 6q-41 4 -91 6t-102 2q-37 0 -76.5 -1t-72.5 -3 q-39 -2 -76 -2zM271 1475v10l155 162l33 8q25 0 67 -10.5t87 -23.5t84 -23.5t61 -10.5q16 0 39 14.5t43 30.5q23 20 47 47h12l45 -43v-10l-155 -162l-33 -8q-25 0 -66.5 10.5t-87 23.5t-85 23.5t-60.5 10.5q-18 0 -40.5 -15.5t-43.5 -31.5q-23 -20 -45 -45h-12zM373 559h180 q41 0 98.5 3t91.5 7l-161 537h-15z" />
<glyph unicode="&#xc4;" horiz-adv-x="1183" d="M-37 -6l17 96q57 6 90.5 39t68.5 119l400 1046l129 35h16q51 -186 104 -377q23 -82 49.5 -172t55.5 -183t58.5 -186.5t58.5 -179.5q12 -39 27.5 -64.5t38 -43t54 -25.5t76.5 -12l4 -8l-14 -84q-43 0 -82 2q-35 2 -71.5 3t-63.5 1q-59 0 -113.5 -3t-97.5 -7 q-51 -6 -94 -10l-6 14l8 80q106 8 144 24.5t38 53.5q0 39 -18 98l-68 223q-18 0 -46 1t-57.5 1h-59h-50.5q-59 0 -123.5 -6t-99.5 -10l-76 -213q-18 -55 -18 -80q0 -45 28.5 -64.5t94.5 -19.5h116l4 -8l-12 -88q-45 2 -92 6q-41 4 -91 6t-102 2q-37 0 -76.5 -1t-72.5 -3 q-39 -2 -76 -2zM340 1573q0 41 29 71.5t74 30.5q41 0 62.5 -26.5t21.5 -61.5q0 -41 -29 -71.5t-74 -30.5q-41 0 -62.5 27.5t-21.5 60.5zM373 559h180q41 0 98.5 3t91.5 7l-161 537h-15zM680 1573q0 41 29 71.5t74 30.5q41 0 62.5 -26.5t21.5 -61.5q0 -41 -29 -71.5 t-74 -30.5q-41 0 -62.5 27.5t-21.5 60.5z" />
<glyph unicode="&#xc5;" horiz-adv-x="1183" d="M-37 -6l17 96q57 6 90.5 39t68.5 119l400 1046l129 35h16q51 -186 104 -377q23 -82 49.5 -172t55.5 -183t58.5 -186.5t58.5 -179.5q12 -39 27.5 -64.5t38 -43t54 -25.5t76.5 -12l4 -8l-14 -84q-43 0 -82 2q-35 2 -71.5 3t-63.5 1q-59 0 -113.5 -3t-97.5 -7 q-51 -6 -94 -10l-6 14l8 80q106 8 144 24.5t38 53.5q0 39 -18 98l-68 223q-18 0 -46 1t-57.5 1h-59h-50.5q-59 0 -123.5 -6t-99.5 -10l-76 -213q-18 -55 -18 -80q0 -45 28.5 -64.5t94.5 -19.5h116l4 -8l-12 -88q-45 2 -92 6q-41 4 -91 6t-102 2q-37 0 -76.5 -1t-72.5 -3 q-39 -2 -76 -2zM373 559h180q41 0 98.5 3t91.5 7l-161 537h-15zM439 1544q0 74 47 123t125 49q43 0 72.5 -13t48 -34.5t27.5 -50.5t9 -57q0 -72 -45 -126.5t-129 -54.5q-76 0 -115.5 46.5t-39.5 117.5zM504 1556q0 -53 36 -75.5t69 -22.5q12 0 27.5 2t29.5 10.5t23.5 24.5 t9.5 43q0 43 -26.5 70.5t-78.5 27.5q-45 0 -67.5 -21.5t-22.5 -58.5z" />
<glyph unicode="&#xc6;" horiz-adv-x="1658" d="M-20 63q18 20 40 50q18 25 42 58.5t47 76.5l505 936q-8 33 -51 33q-10 0 -22.5 -1.5t-22.5 -1.5q-12 -2 -24 -2l-5 9l15 90q0 2 89 -2t236 -4q121 0 214.5 1t166 4t128 8t102.5 11l6 -12q-10 -47 -19 -100q-8 -47 -16 -107.5t-12 -132.5l-99 -8q0 16 3 32q0 14 1 30t1 26 q0 49 -9.5 78.5t-42 44t-96 18.5t-174.5 4q-47 0 -75.5 -2t-43 -8t-19.5 -19.5t-5 -33.5l63 -467l242 22l188 27l8 -10l-26 -109l-176 -6l-224 -18l58 -347q12 -78 50 -108.5t122 -30.5q111 0 177.5 7t104 33t54 76t28.5 134l90 10l7 -10q-10 -51 -21 -106 q-10 -47 -19.5 -110t-15.5 -128l-10 -12l-58 2q-57 2 -141 5t-179 5t-173 2h-69q-59 0 -114.5 -3t-96.5 -7l-93 -10l-4 14l4 80q61 4 99.5 11t61 18.5t30.5 29t8 45.5q0 35 -5 68t-9 67l-37 252l-203 -16l-186 -21l-146 -282q-18 -35 -25 -56.5t-7 -37.5q0 -70 112 -70h117 l-10 -96q-45 2 -92 6q-41 4 -91.5 6t-99.5 2q-16 0 -39.5 -1t-46.5 -3q-25 -2 -53 -4zM430 635l172 10l150 12l-62 447h-18z" />
<glyph unicode="&#xc7;" horiz-adv-x="1288" d="M82 608q0 156 53 288t148.5 228.5t226.5 150.5t287 54q63 0 126.5 -7t114.5 -17q59 -10 115 -25l8 -12q-12 -47 -20 -101q-10 -47 -18.5 -108.5t-12.5 -132.5l-98 -8q0 14 2 32q2 14 3 32.5t1 35.5q0 190 -301 190q-102 0 -186.5 -37.5t-142.5 -106.5t-90 -167t-32 -221 q0 -135 34 -246t95.5 -188.5t147.5 -120.5t192 -43q141 0 225 79t123 244l99 9q-12 -55 -23 -113q-10 -49 -19.5 -107.5t-13.5 -113.5l-12 -19q-47 -20 -104 -37q-49 -14 -118 -26t-151 -17l-26 -79q25 -18 55.5 -38t57 -42.5t44 -48t17.5 -54.5q0 -41 -22.5 -75.5 t-58.5 -60t-79 -41t-86 -15.5q-23 0 -47.5 5t-45 14t-33.5 22.5t-13 32.5q0 20 17.5 55t33.5 59h18q2 -57 33 -87t80 -30q41 0 69.5 22t28.5 56q0 18 -15 38t-41 40.5t-56.5 38.5t-61.5 37l45 151q-131 6 -237.5 53.5t-181 128.5t-114.5 194.5t-40 254.5z" />
<glyph unicode="&#xc8;" horiz-adv-x="1210" d="M119 -20l12 94q92 12 126 48t34 124l2 860q0 66 -14.5 88.5t-61.5 22.5q-10 0 -22.5 -1.5t-22.5 -1.5q-12 -2 -25 -2l-4 9l15 90q47 -2 96 -4q41 -2 91 -2h97q123 0 215.5 1t164 4t128 8t107.5 11l6 -12q-10 -47 -19 -100q-8 -47 -16 -107.5t-12 -132.5l-98 -8q0 16 2 32 q0 14 1 30t1 26q0 49 -8.5 78.5t-40 44t-94 18.5t-171.5 4q-49 0 -77.5 -2t-43 -9t-18.5 -23.5t-4 -45.5l-16 -397q35 0 99 -1t111 -1q29 0 70 3t82 7q47 6 98 12l9 -10l-29 -121q-51 0 -103 2q-43 2 -93 3.5t-91 1.5q-47 0 -89 -5.5t-69 -9.5q-2 -84 -4 -145.5t-3 -107.5 t-1 -79.5v-58.5q0 -41 4 -65.5t21.5 -37t49.5 -16.5t87 -4q121 0 193.5 7t113.5 33t58.5 76t29.5 134l90 10l7 -10q-10 -51 -21 -106q-10 -47 -19.5 -110t-15.5 -128l-10 -12q-123 2 -238 6q-49 2 -101 3t-103.5 2t-96.5 2t-82 1q-59 0 -110 -3t-90 -7q-45 -6 -84 -10z M321 1612l33 98l19 12q63 -37 131 -73q59 -33 131.5 -73t144.5 -77l-12 -49l-17 -10q-82 31 -156.5 57.5t-133.5 48.5q-68 23 -131 45z" />
<glyph unicode="&#xc9;" horiz-adv-x="1210" d="M119 -20l12 94q92 12 126 48t34 124l2 860q0 66 -14.5 88.5t-61.5 22.5q-10 0 -22.5 -1.5t-22.5 -1.5q-12 -2 -25 -2l-4 9l15 90q47 -2 96 -4q41 -2 91 -2h97q123 0 215.5 1t164 4t128 8t107.5 11l6 -12q-10 -47 -19 -100q-8 -47 -16 -107.5t-12 -132.5l-98 -8q0 16 2 32 q0 14 1 30t1 26q0 49 -8.5 78.5t-40 44t-94 18.5t-171.5 4q-49 0 -77.5 -2t-43 -9t-18.5 -23.5t-4 -45.5l-16 -397q35 0 99 -1t111 -1q29 0 70 3t82 7q47 6 98 12l9 -10l-29 -121q-51 0 -103 2q-43 2 -93 3.5t-91 1.5q-47 0 -89 -5.5t-69 -9.5q-2 -84 -4 -145.5t-3 -107.5 t-1 -79.5v-58.5q0 -41 4 -65.5t21.5 -37t49.5 -16.5t87 -4q121 0 193.5 7t113.5 33t58.5 76t29.5 134l90 10l7 -10q-10 -51 -21 -106q-10 -47 -19.5 -110t-15.5 -128l-10 -12q-123 2 -238 6q-49 2 -101 3t-103.5 2t-96.5 2t-82 1q-59 0 -110 -3t-90 -7q-45 -6 -84 -10z M504 1499q72 37 144.5 77t131.5 73q68 37 132 73l18 -12l33 -98l-8 -21q-63 -23 -132 -45q-59 -23 -134.5 -49.5t-155.5 -56.5l-17 10z" />
<glyph unicode="&#xca;" horiz-adv-x="1210" d="M119 -20l12 94q92 12 126 48t34 124l2 860q0 66 -14.5 88.5t-61.5 22.5q-10 0 -22.5 -1.5t-22.5 -1.5q-12 -2 -25 -2l-4 9l15 90q47 -2 96 -4q41 -2 91 -2h97q123 0 215.5 1t164 4t128 8t107.5 11l6 -12q-10 -47 -19 -100q-8 -47 -16 -107.5t-12 -132.5l-98 -8q0 16 2 32 q0 14 1 30t1 26q0 49 -8.5 78.5t-40 44t-94 18.5t-171.5 4q-49 0 -77.5 -2t-43 -9t-18.5 -23.5t-4 -45.5l-16 -397q35 0 99 -1t111 -1q29 0 70 3t82 7q47 6 98 12l9 -10l-29 -121q-51 0 -103 2q-43 2 -93 3.5t-91 1.5q-47 0 -89 -5.5t-69 -9.5q-2 -84 -4 -145.5t-3 -107.5 t-1 -79.5v-58.5q0 -41 4 -65.5t21.5 -37t49.5 -16.5t87 -4q121 0 193.5 7t113.5 33t58.5 76t29.5 134l90 10l7 -10q-10 -51 -21 -106q-10 -47 -19.5 -110t-15.5 -128l-10 -12q-123 2 -238 6q-49 2 -101 3t-103.5 2t-96.5 2t-82 1q-59 0 -110 -3t-90 -7q-45 -6 -84 -10z M338 1505q49 37 99 77t91 75q47 39 92 76h29q45 -37 92 -76q41 -35 90 -75t101 -77l-29 -45l-19 -2q-72 41 -140 77t-109 56q-43 -20 -110 -55t-140 -78l-19 2z" />
<glyph unicode="&#xcb;" horiz-adv-x="1210" d="M119 -20l12 94q92 12 126 48t34 124l2 860q0 66 -14.5 88.5t-61.5 22.5q-10 0 -22.5 -1.5t-22.5 -1.5q-12 -2 -25 -2l-4 9l15 90q47 -2 96 -4q41 -2 91 -2h97q123 0 215.5 1t164 4t128 8t107.5 11l6 -12q-10 -47 -19 -100q-8 -47 -16 -107.5t-12 -132.5l-98 -8q0 16 2 32 q0 14 1 30t1 26q0 49 -8.5 78.5t-40 44t-94 18.5t-171.5 4q-49 0 -77.5 -2t-43 -9t-18.5 -23.5t-4 -45.5l-16 -397q35 0 99 -1t111 -1q29 0 70 3t82 7q47 6 98 12l9 -10l-29 -121q-51 0 -103 2q-43 2 -93 3.5t-91 1.5q-47 0 -89 -5.5t-69 -9.5q-2 -84 -4 -145.5t-3 -107.5 t-1 -79.5v-58.5q0 -41 4 -65.5t21.5 -37t49.5 -16.5t87 -4q121 0 193.5 7t113.5 33t58.5 76t29.5 134l90 10l7 -10q-10 -51 -21 -106q-10 -47 -19.5 -110t-15.5 -128l-10 -12q-123 2 -238 6q-49 2 -101 3t-103.5 2t-96.5 2t-82 1q-59 0 -110 -3t-90 -7q-45 -6 -84 -10z M368 1573q0 41 29 71.5t74 30.5q41 0 62.5 -26.5t21.5 -61.5q0 -41 -29 -71.5t-74 -30.5q-41 0 -62.5 27.5t-21.5 60.5zM708 1573q0 41 29 71.5t74 30.5q41 0 62.5 -26.5t21.5 -61.5q0 -41 -29 -71.5t-74 -30.5q-41 0 -62.5 27.5t-21.5 60.5z" />
<glyph unicode="&#xcc;" horiz-adv-x="739" d="M65 1616l33 98l19 12q63 -37 131 -73q59 -33 131.5 -73t144.5 -77l-12 -49l-17 -10q-82 31 -156.5 57.5t-133.5 48.5q-68 23 -131 45zM115 -25l12 95q96 18 130 54t34 122l2 860q0 66 -14.5 88.5t-61.5 22.5q-12 0 -26.5 -1.5t-28.5 -1.5q-16 -2 -31 -2l-4 9l14 90l90 -4 q39 -2 80 -2h74q35 0 77 2t77 6q41 4 82 10l-9 -92q-86 -10 -115.5 -35t-31.5 -82q-6 -111 -11 -240t-9.5 -250.5t-6.5 -226t-2 -168.5q0 -84 18.5 -111.5t71.5 -27.5h37t35 2q18 2 37 4l4 -8l-18 -94q-49 0 -99 2q-41 2 -88 3t-82 1q-41 0 -82 -4t-75 -8q-41 -6 -80 -13z " />
<glyph unicode="&#xcd;" horiz-adv-x="739" d="M115 -25l12 95q96 18 130 54t34 122l2 860q0 66 -14.5 88.5t-61.5 22.5q-12 0 -26.5 -1.5t-28.5 -1.5q-16 -2 -31 -2l-4 9l14 90l90 -4q39 -2 80 -2h74q35 0 77 2t77 6q41 4 82 10l-9 -92q-86 -10 -115.5 -35t-31.5 -82q-6 -111 -11 -240t-9.5 -250.5t-6.5 -226 t-2 -168.5q0 -84 18.5 -111.5t71.5 -27.5h37t35 2q18 2 37 4l4 -8l-18 -94q-49 0 -99 2q-41 2 -88 3t-82 1q-41 0 -82 -4t-75 -8q-41 -6 -80 -13zM248 1499q72 37 144.5 77t131.5 73q68 37 132 73l18 -12l33 -98l-8 -21q-63 -23 -132 -45q-59 -23 -134.5 -49.5t-155.5 -56.5 l-17 10z" />
<glyph unicode="&#xce;" horiz-adv-x="739" d="M82 1505q49 37 99 77t91 75q47 39 92 76h29q45 -37 92 -76q41 -35 90 -75t101 -77l-29 -45l-19 -2q-72 41 -140 77t-109 56q-43 -20 -110 -55t-140 -78l-19 2zM117 -25l12 95q96 18 130 54t34 122l2 860q0 66 -14.5 88.5t-61.5 22.5q-12 0 -26.5 -1.5t-28.5 -1.5 q-16 -2 -31 -2l-4 9l14 90l90 -4q39 -2 80 -2h74q35 0 77 2t77 6q41 4 82 10l-9 -92q-86 -10 -115.5 -35t-31.5 -82q-6 -111 -11 -240t-9.5 -250.5t-6.5 -226t-2 -168.5q0 -84 18.5 -111.5t71.5 -27.5h37t35 2q18 2 37 4l4 -8l-18 -94q-49 0 -99 2q-41 2 -88 3t-82 1 q-41 0 -82 -4t-75 -8q-41 -6 -80 -13z" />
<glyph unicode="&#xcf;" horiz-adv-x="739" d="M114 1573q0 41 29 71.5t74 30.5q41 0 62.5 -26.5t21.5 -61.5q0 -41 -29 -71.5t-74 -30.5q-41 0 -62.5 27.5t-21.5 60.5zM115 -25l12 95q96 18 130 54t34 122l2 860q0 66 -14.5 88.5t-61.5 22.5q-12 0 -26.5 -1.5t-28.5 -1.5q-16 -2 -31 -2l-4 9l14 90l90 -4q39 -2 80 -2 h74q35 0 77 2t77 6q41 4 82 10l-9 -92q-86 -10 -115.5 -35t-31.5 -82q-6 -111 -11 -240t-9.5 -250.5t-6.5 -226t-2 -168.5q0 -84 18.5 -111.5t71.5 -27.5h37t35 2q18 2 37 4l4 -8l-18 -94q-49 0 -99 2q-41 2 -88 3t-82 1q-41 0 -82 -4t-75 -8q-41 -6 -80 -13zM454 1573 q0 41 29 71.5t74 30.5q41 0 62.5 -26.5t21.5 -61.5q0 -41 -29 -71.5t-74 -30.5q-41 0 -62.5 27.5t-21.5 60.5z" />
<glyph unicode="&#xd0;" horiz-adv-x="1460" d="M18 637l15 65h272l2 404q0 66 -14 88.5t-62 22.5q-10 0 -22 -1.5t-23 -1.5q-12 -2 -24 -2l-4 9l14 90l78 -4q33 -2 70.5 -2h66.5q35 0 88 1t103 3q57 2 120 4q147 0 271.5 -46t213.5 -127t139 -193.5t50 -246.5q0 -154 -55 -285.5t-150.5 -229t-224 -154t-278.5 -56.5 q-55 6 -109 13q-47 4 -97 8t-89 4t-80 -4t-76 -8q-41 -6 -80 -13l12 95q53 10 85 23t48.5 39t21.5 71t5 119v301h-272zM453 268q0 -55 11 -92t41 -58.5t79 -29.5t127 -8q111 0 198.5 40t149 113.5t94.5 179t33 238.5q0 272 -162 416.5t-467 144.5q-43 0 -57.5 -8t-16.5 -37 l-18 -465h348l10 -14l-12 -65h-348z" />
<glyph unicode="&#xd1;" horiz-adv-x="1472" d="M111 1239l16 76q33 -4 66 -6q29 -2 58.5 -3t51.5 -1q25 0 49.5 1t44.5 3q23 2 43 4q129 -199 251 -382t220 -325q113 -166 217 -309h11v829q0 88 -68 88q-14 0 -28.5 -1t-24.5 -1h-25l-4 9l19 92q35 -2 71 -4q29 -2 63 -3t60 -1q33 0 68 2t65 6l70 8l-10 -94 q-72 -10 -105 -40t-35 -89l-28 -1151l-60 -29q-152 236 -288 439.5t-242 357.5q-125 180 -231 332h-11l-10 -875q0 -47 14.5 -64.5t49.5 -17.5h59q20 0 45 2l4 -8l-18 -92q-39 2 -76 4q-33 2 -71 3t-70 1q-31 0 -65 -2t-62 -6q-33 -4 -64 -8l10 94q63 8 94 36.5t33 92.5 l27 895q0 63 -38 90t-140 37zM424 1475v10l155 162l33 8q25 0 67 -10.5t87 -23.5t84 -23.5t61 -10.5q16 0 39 14.5t43 30.5q23 20 47 47h12l45 -43v-10l-155 -162l-33 -8q-25 0 -66.5 10.5t-87 23.5t-85 23.5t-60.5 10.5q-18 0 -40.5 -15.5t-43.5 -31.5q-23 -20 -45 -45h-12 z" />
<glyph unicode="&#xd2;" horiz-adv-x="1417" d="M82 608q0 152 52 284t142.5 229.5t214 152.5t265.5 55q129 0 235.5 -46t183 -129t118.5 -199.5t42 -256.5q0 -154 -53 -285.5t-145.5 -229t-217.5 -153t-270 -55.5q-127 0 -230.5 46.5t-179 130.5t-116.5 199.5t-41 256.5zM258 674q0 -131 34 -240.5t93 -187.5 t143.5 -122t184.5 -44q98 0 179 39t139.5 109.5t90 168t31.5 215.5q0 131 -34 241t-95 187.5t-147 121.5t-191 44q-96 0 -174 -39t-135.5 -109.5t-88 -167.5t-30.5 -216zM387 1612l33 98l19 12q63 -37 131 -73q59 -33 131.5 -73t144.5 -77l-12 -49l-17 -10 q-82 31 -156.5 57.5t-133.5 48.5q-68 23 -131 45z" />
<glyph unicode="&#xd3;" horiz-adv-x="1417" d="M82 608q0 152 52 284t142.5 229.5t214 152.5t265.5 55q129 0 235.5 -46t183 -129t118.5 -199.5t42 -256.5q0 -154 -53 -285.5t-145.5 -229t-217.5 -153t-270 -55.5q-127 0 -230.5 46.5t-179 130.5t-116.5 199.5t-41 256.5zM258 674q0 -131 34 -240.5t93 -187.5 t143.5 -122t184.5 -44q98 0 179 39t139.5 109.5t90 168t31.5 215.5q0 131 -34 241t-95 187.5t-147 121.5t-191 44q-96 0 -174 -39t-135.5 -109.5t-88 -167.5t-30.5 -216zM569 1499q72 37 144.5 77t131.5 73q68 37 132 73l18 -12l33 -98l-8 -21q-63 -23 -132 -45 q-59 -23 -134.5 -49.5t-155.5 -56.5l-17 10z" />
<glyph unicode="&#xd4;" horiz-adv-x="1417" d="M82 608q0 152 52 284t142.5 229.5t214 152.5t265.5 55q129 0 235.5 -46t183 -129t118.5 -199.5t42 -256.5q0 -154 -53 -285.5t-145.5 -229t-217.5 -153t-270 -55.5q-127 0 -230.5 46.5t-179 130.5t-116.5 199.5t-41 256.5zM258 674q0 -131 34 -240.5t93 -187.5 t143.5 -122t184.5 -44q98 0 179 39t139.5 109.5t90 168t31.5 215.5q0 131 -34 241t-95 187.5t-147 121.5t-191 44q-96 0 -174 -39t-135.5 -109.5t-88 -167.5t-30.5 -216zM404 1505q49 37 99 77t91 75q47 39 92 76h29q45 -37 92 -76q41 -35 90 -75t101 -77l-29 -45l-19 -2 q-72 41 -140 77t-109 56q-43 -20 -110 -55t-140 -78l-19 2z" />
<glyph unicode="&#xd5;" horiz-adv-x="1417" d="M82 608q0 152 52 284t142.5 229.5t214 152.5t265.5 55q129 0 235.5 -46t183 -129t118.5 -199.5t42 -256.5q0 -154 -53 -285.5t-145.5 -229t-217.5 -153t-270 -55.5q-127 0 -230.5 46.5t-179 130.5t-116.5 199.5t-41 256.5zM258 674q0 -131 34 -240.5t93 -187.5 t143.5 -122t184.5 -44q98 0 179 39t139.5 109.5t90 168t31.5 215.5q0 131 -34 241t-95 187.5t-147 121.5t-191 44q-96 0 -174 -39t-135.5 -109.5t-88 -167.5t-30.5 -216zM365 1475v10l155 162l33 8q25 0 67 -10.5t87 -23.5t84 -23.5t61 -10.5q16 0 39 14.5t43 30.5 q23 20 47 47h12l45 -43v-10l-155 -162l-33 -8q-25 0 -66.5 10.5t-87 23.5t-85 23.5t-60.5 10.5q-18 0 -40.5 -15.5t-43.5 -31.5q-23 -20 -45 -45h-12z" />
<glyph unicode="&#xd6;" horiz-adv-x="1417" d="M82 608q0 152 52 284t142.5 229.5t214 152.5t265.5 55q129 0 235.5 -46t183 -129t118.5 -199.5t42 -256.5q0 -154 -53 -285.5t-145.5 -229t-217.5 -153t-270 -55.5q-127 0 -230.5 46.5t-179 130.5t-116.5 199.5t-41 256.5zM258 674q0 -131 34 -240.5t93 -187.5 t143.5 -122t184.5 -44q98 0 179 39t139.5 109.5t90 168t31.5 215.5q0 131 -34 241t-95 187.5t-147 121.5t-191 44q-96 0 -174 -39t-135.5 -109.5t-88 -167.5t-30.5 -216zM436 1573q0 41 29 71.5t74 30.5q41 0 62.5 -26.5t21.5 -61.5q0 -41 -29 -71.5t-74 -30.5 q-41 0 -62.5 27.5t-21.5 60.5zM776 1573q0 41 29 71.5t74 30.5q41 0 62.5 -26.5t21.5 -61.5q0 -41 -29 -71.5t-74 -30.5q-41 0 -62.5 27.5t-21.5 60.5z" />
<glyph unicode="&#xd7;" d="M139 829l4 23l88 53l97 -96q41 -43 92 -94t98 -99q43 45 92 97.5t92 99.5q51 53 101 107l22 -7l64 -86l-291 -292q45 -45 96 -93.5t97 -89.5q53 -49 104 -94l-6 -25l-86 -61l-285 283q-49 -49 -100 -100.5t-92 -94.5q-49 -51 -95 -96l-22 6l-55 86q45 45 94 92 q41 41 91 90t97 97q-49 47 -101 99l-95 95z" />
<glyph unicode="&#xd8;" horiz-adv-x="1417" d="M82 608q0 152 52 284t142.5 229.5t214 152.5t265.5 55q121 0 223 -43l86 164l59 -14l6 -25l-83 -156q135 -78 211.5 -221t76.5 -336q0 -154 -53 -285.5t-145.5 -229t-217 -153t-270.5 -55.5q-70 0 -131 14.5t-117 39.5l-122 -230l-56 13l-4 20l121 231 q-123 80 -190.5 220.5t-67.5 324.5zM258 674q0 -147 41 -267t117 -198l489 936q-47 29 -103.5 45t-115.5 16q-96 0 -174 -39t-135.5 -109.5t-88 -167.5t-30.5 -216zM469 160q109 -80 244 -80q98 0 179 39t139.5 109.5t90 168t31.5 215.5q0 160 -50 286t-138 204z" />
<glyph unicode="&#xd9;" horiz-adv-x="1394" d="M72 1221l14 90l86 -4q35 -2 76 -2h69q33 0 71 2t71 6q37 4 73 10l-8 -92q-39 -6 -63.5 -13.5t-38.5 -20.5t-20.5 -33.5t-8.5 -49.5l-16 -602q0 -205 88 -312.5t254 -107.5q168 0 256 88t88 258q0 27 -1 70t-2 95t-2 109.5t-1 112.5q-4 131 -6 281q-4 72 -17.5 91.5 t-58.5 19.5q-10 0 -24.5 -1.5t-28.5 -1.5q-16 -2 -35 -2l-4 9l14 90l86 -4q35 -2 76 -2h69q33 0 69 2t65 6q35 4 65 10l-8 -92q-45 -6 -72.5 -13.5t-43 -19.5t-20.5 -32.5t-5 -51.5v-688q0 -217 -133.5 -334t-374.5 -117q-217 0 -333 118t-116 335v678q0 66 -14 88.5 t-62 22.5q-10 0 -22 -1.5t-23 -1.5q-12 -2 -24 -2zM397 1612l33 98l19 12q63 -37 131 -73q59 -33 131.5 -73t144.5 -77l-12 -49l-17 -10q-82 31 -156.5 57.5t-133.5 48.5q-68 23 -131 45z" />
<glyph unicode="&#xda;" horiz-adv-x="1394" d="M72 1221l14 90l86 -4q35 -2 76 -2h69q33 0 71 2t71 6q37 4 73 10l-8 -92q-39 -6 -63.5 -13.5t-38.5 -20.5t-20.5 -33.5t-8.5 -49.5l-16 -602q0 -205 88 -312.5t254 -107.5q168 0 256 88t88 258q0 27 -1 70t-2 95t-2 109.5t-1 112.5q-4 131 -6 281q-4 72 -17.5 91.5 t-58.5 19.5q-10 0 -24.5 -1.5t-28.5 -1.5q-16 -2 -35 -2l-4 9l14 90l86 -4q35 -2 76 -2h69q33 0 69 2t65 6q35 4 65 10l-8 -92q-45 -6 -72.5 -13.5t-43 -19.5t-20.5 -32.5t-5 -51.5v-688q0 -217 -133.5 -334t-374.5 -117q-217 0 -333 118t-116 335v678q0 66 -14 88.5 t-62 22.5q-10 0 -22 -1.5t-23 -1.5q-12 -2 -24 -2zM580 1499q72 37 144.5 77t131.5 73q68 37 132 73l18 -12l33 -98l-8 -21q-63 -23 -132 -45q-59 -23 -134.5 -49.5t-155.5 -56.5l-17 10z" />
<glyph unicode="&#xdb;" horiz-adv-x="1394" d="M72 1221l14 90l86 -4q35 -2 76 -2h69q33 0 71 2t71 6q37 4 73 10l-8 -92q-39 -6 -63.5 -13.5t-38.5 -20.5t-20.5 -33.5t-8.5 -49.5l-16 -602q0 -205 88 -312.5t254 -107.5q168 0 256 88t88 258q0 27 -1 70t-2 95t-2 109.5t-1 112.5q-4 131 -6 281q-4 72 -17.5 91.5 t-58.5 19.5q-10 0 -24.5 -1.5t-28.5 -1.5q-16 -2 -35 -2l-4 9l14 90l86 -4q35 -2 76 -2h69q33 0 69 2t65 6q35 4 65 10l-8 -92q-45 -6 -72.5 -13.5t-43 -19.5t-20.5 -32.5t-5 -51.5v-688q0 -217 -133.5 -334t-374.5 -117q-217 0 -333 118t-116 335v678q0 66 -14 88.5 t-62 22.5q-10 0 -22 -1.5t-23 -1.5q-12 -2 -24 -2zM412 1505q49 37 99 77t91 75q47 39 92 76h29q45 -37 92 -76q41 -35 90 -75t101 -77l-29 -45l-19 -2q-72 41 -140 77t-109 56q-43 -20 -110 -55t-140 -78l-19 2z" />
<glyph unicode="&#xdc;" horiz-adv-x="1394" d="M72 1221l14 90l86 -4q35 -2 76 -2h69q33 0 71 2t71 6q37 4 73 10l-8 -92q-39 -6 -63.5 -13.5t-38.5 -20.5t-20.5 -33.5t-8.5 -49.5l-16 -602q0 -205 88 -312.5t254 -107.5q168 0 256 88t88 258q0 27 -1 70t-2 95t-2 109.5t-1 112.5q-4 131 -6 281q-4 72 -17.5 91.5 t-58.5 19.5q-10 0 -24.5 -1.5t-28.5 -1.5q-16 -2 -35 -2l-4 9l14 90l86 -4q35 -2 76 -2h69q33 0 69 2t65 6q35 4 65 10l-8 -92q-45 -6 -72.5 -13.5t-43 -19.5t-20.5 -32.5t-5 -51.5v-688q0 -217 -133.5 -334t-374.5 -117q-217 0 -333 118t-116 335v678q0 66 -14 88.5 t-62 22.5q-10 0 -22 -1.5t-23 -1.5q-12 -2 -24 -2zM446 1573q0 41 29 71.5t74 30.5q41 0 62.5 -26.5t21.5 -61.5q0 -41 -29 -71.5t-74 -30.5q-41 0 -62.5 27.5t-21.5 60.5zM786 1573q0 41 29 71.5t74 30.5q41 0 62.5 -26.5t21.5 -61.5q0 -41 -29 -71.5t-74 -30.5 q-41 0 -62.5 27.5t-21.5 60.5z" />
<glyph unicode="&#xdd;" horiz-adv-x="1101" d="M-39 1231l12 80l78 -4q35 -2 74 -2h74q43 0 93 2t95 6l102 8l7 -14l-7 -72q-92 -8 -123.5 -23.5t-31.5 -50.5q0 -14 16.5 -59t42 -103.5t55 -123t55 -119t43.5 -88.5l17 -35h10l234 434q33 59 33 102q0 53 -129 62l-4 8l12 80q45 -4 86 -8q35 -4 74 -5t67 -1q29 0 62.5 1 t62.5 3q33 2 64 4l8 -15l-13 -75q-53 -10 -85.5 -25.5t-59.5 -45.5t-54.5 -76t-68.5 -120l-205 -360q-16 -29 -24 -57.5t-12.5 -69.5t-5.5 -98.5t-3 -141.5q-2 -78 17.5 -108.5t72.5 -30.5h33t33 2q18 2 35 4l4 -8l-19 -94q-49 0 -96 2q-41 2 -85 3t-79 1q-39 0 -79.5 -4 t-75.5 -8q-39 -6 -78 -13l12 95q55 10 87 24.5t48.5 39t20.5 62t4 95.5v90q0 59 -11.5 108.5t-47.5 122.5l-185 375q-31 63 -52 105.5t-47 70t-62.5 41t-96.5 19.5zM453 1499q72 37 144.5 77t131.5 73q68 37 132 73l18 -12l33 -98l-8 -21q-63 -23 -132 -45 q-59 -23 -134.5 -49.5t-155.5 -56.5l-17 10z" />
<glyph unicode="&#xde;" horiz-adv-x="1112" d="M115 -25l12 95q96 18 130 54t34 122l2 860q0 66 -14.5 88.5t-61.5 22.5q-12 0 -26.5 -1.5t-28.5 -1.5q-16 -2 -31 -2l-4 9l14 90l90 -4q39 -2 80 -2h74q35 0 77 2t77 6q41 4 82 10l-9 -92q-86 -10 -115.5 -35t-31.5 -82q-2 -33 -4 -50t0 -34h168q213 0 325.5 -86 t112.5 -248q0 -80 -40 -150.5t-106.5 -124.5t-154.5 -86t-184 -32h-146v-74q0 -84 18.5 -111.5t71.5 -27.5h37t35 2q18 2 37 4l4 -8l-18 -94q-49 0 -99 2q-41 2 -88 3t-82 1q-41 0 -82 -4t-75 -8q-41 -6 -80 -13zM438 428q18 -6 45 -12t55.5 -10.5t57.5 -8.5t51 -4 q248 31 248 264q0 141 -92 207t-293 66q-35 0 -43 -3.5t-12 -13.5q-8 -178 -11.5 -292.5t-5.5 -192.5z" />
<glyph unicode="&#xdf;" horiz-adv-x="1210" d="M84 842l14 69l123 23q0 279 125 432.5t348 153.5q61 0 117.5 -20.5t99.5 -55.5t69 -80t26 -94q0 -86 -40 -146.5t-89.5 -109.5t-89 -96.5t-39.5 -104.5q0 -45 32.5 -81t81.5 -69.5t107.5 -67.5t107.5 -76t82 -95t33 -123q0 -66 -29.5 -125t-79 -103t-116 -71t-140.5 -27 q-100 0 -168.5 31t-68.5 78q0 14 7 37.5t19.5 50.5t25.5 50.5t26 37.5h28q0 -92 51.5 -143t143.5 -51q31 0 58.5 14t49 37.5t35 54.5t13.5 64q0 53 -34 95t-83 77.5t-108.5 71.5t-108.5 78t-83 94.5t-34 121.5q0 72 42 126t92 102.5t92 96.5t42 105q0 90 -69.5 142.5 t-190.5 52.5q-117 0 -173 -91t-58 -288l-13 -819q-4 -113 80 -113h70q14 0 27 2l4 -8l-15 -86q-41 0 -77 2q-33 0 -68 1t-57 1q-43 0 -84 -1t-74 -3q-37 -2 -72 -4l10 80q72 10 94.5 40.5t22.5 108.5v524q-4 47 -30.5 63.5t-98.5 20.5z" />
<glyph unicode="&#xe0;" horiz-adv-x="954" d="M84 238q0 59 29.5 104t79.5 59l387 107l4 90q0 104 -47.5 160.5t-133.5 56.5q-51 0 -94 -16.5t-78 -34.5q-39 -23 -73 -51l-11 6l-24 88q70 39 133 72q53 27 109.5 49t91.5 22q135 0 209.5 -69.5t74.5 -194.5q0 -29 -6 -88t-12 -130t-12 -139.5t-6 -113.5q0 -94 83 -94 q25 0 47.5 7t38.5 17q20 10 37 27l29 -33q-25 -37 -51 -69q-25 -29 -56.5 -55.5t-70.5 -39.5q-168 0 -182 166l-9 2q-74 -74 -134 -116.5t-91 -42.5q-57 0 -105 18t-83 52t-54.5 81t-19.5 103zM190 1374l78 84l21 4q45 -57 98 -116q43 -51 98.5 -114t110.5 -122l-41 -39 l-18 -4q-66 59 -128.5 110.5t-109.5 90.5q-57 45 -107 84zM240 260q0 -59 39.5 -98t101.5 -39q39 0 91 27.5t95 70.5l8 209l-276 -84q-59 -18 -59 -86z" />
<glyph unicode="&#xe1;" horiz-adv-x="954" d="M84 238q0 59 29.5 104t79.5 59l387 107l4 90q0 104 -47.5 160.5t-133.5 56.5q-51 0 -94 -16.5t-78 -34.5q-39 -23 -73 -51l-11 6l-24 88q70 39 133 72q53 27 109.5 49t91.5 22q135 0 209.5 -69.5t74.5 -194.5q0 -29 -6 -88t-12 -130t-12 -139.5t-6 -113.5q0 -94 83 -94 q25 0 47.5 7t38.5 17q20 10 37 27l29 -33q-25 -37 -51 -69q-25 -29 -56.5 -55.5t-70.5 -39.5q-168 0 -182 166l-9 2q-74 -74 -134 -116.5t-91 -42.5q-57 0 -105 18t-83 52t-54.5 81t-19.5 103zM240 260q0 -59 39.5 -98t101.5 -39q39 0 91 27.5t95 70.5l8 209l-276 -84 q-59 -18 -59 -86zM303 1110q55 59 109.5 121.5t99.5 116.5q51 59 98 116l21 -4l78 -84l-2 -22q-53 -41 -109 -86q-49 -41 -109.5 -91.5t-125.5 -109.5l-19 4z" />
<glyph unicode="&#xe2;" horiz-adv-x="954" d="M84 238q0 59 29.5 104t79.5 59l387 107l4 90q0 104 -47.5 160.5t-133.5 56.5q-51 0 -94 -16.5t-78 -34.5q-39 -23 -73 -51l-11 6l-24 88q70 39 133 72q53 27 109.5 49t91.5 22q135 0 209.5 -69.5t74.5 -194.5q0 -29 -6 -88t-12 -130t-12 -139.5t-6 -113.5q0 -94 83 -94 q25 0 47.5 7t38.5 17q20 10 37 27l29 -33q-25 -37 -51 -69q-25 -29 -56.5 -55.5t-70.5 -39.5q-168 0 -182 166l-9 2q-74 -74 -134 -116.5t-91 -42.5q-57 0 -105 18t-83 52t-54.5 81t-19.5 103zM150 1126q49 53 99 107.5t91 101.5q47 53 92 105h29q45 -51 92 -105 q41 -47 90 -101t101 -108l-29 -45l-19 -2q-72 63 -140 114.5t-109 84.5q-43 -33 -110 -83t-140 -116l-19 2zM240 260q0 -59 39.5 -98t101.5 -39q39 0 91 27.5t95 70.5l8 209l-276 -84q-59 -18 -59 -86z" />
<glyph unicode="&#xe3;" horiz-adv-x="954" d="M84 238q0 59 29.5 104t79.5 59l387 107l4 90q0 104 -47.5 160.5t-133.5 56.5q-51 0 -94 -16.5t-78 -34.5q-39 -23 -73 -51l-11 6l-24 88q70 39 133 72q53 27 109.5 49t91.5 22q135 0 209.5 -69.5t74.5 -194.5q0 -29 -6 -88t-12 -130t-12 -139.5t-6 -113.5q0 -94 83 -94 q25 0 47.5 7t38.5 17q20 10 37 27l29 -33q-25 -37 -51 -69q-25 -29 -56.5 -55.5t-70.5 -39.5q-168 0 -182 166l-9 2q-74 -74 -134 -116.5t-91 -42.5q-57 0 -105 18t-83 52t-54.5 81t-19.5 103zM109 1171v11l155 182l33 8q25 0 67 -10t87 -23.5t84 -23.5t61 -10q16 0 39 16 t43 39q23 25 47 57h12l45 -43v-10l-155 -182l-33 -8q-25 0 -66.5 10t-87 23.5t-85 23.5t-60.5 10q-18 0 -40.5 -17.5t-43.5 -39.5q-23 -25 -45 -56h-12zM240 260q0 -59 39.5 -98t101.5 -39q39 0 91 27.5t95 70.5l8 209l-276 -84q-59 -18 -59 -86z" />
<glyph unicode="&#xe4;" horiz-adv-x="954" d="M84 238q0 59 29.5 104t79.5 59l387 107l4 90q0 104 -47.5 160.5t-133.5 56.5q-51 0 -94 -16.5t-78 -34.5q-39 -23 -73 -51l-11 6l-24 88q70 39 133 72q53 27 109.5 49t91.5 22q135 0 209.5 -69.5t74.5 -194.5q0 -29 -6 -88t-12 -130t-12 -139.5t-6 -113.5q0 -94 83 -94 q25 0 47.5 7t38.5 17q20 10 37 27l29 -33q-25 -37 -51 -69q-25 -29 -56.5 -55.5t-70.5 -39.5q-168 0 -182 166l-9 2q-74 -74 -134 -116.5t-91 -42.5q-57 0 -105 18t-83 52t-54.5 81t-19.5 103zM180 1247q0 41 29 72t74 31q41 0 62.5 -27t21.5 -61q0 -41 -29 -72t-74 -31 q-41 0 -62.5 27.5t-21.5 60.5zM240 260q0 -59 39.5 -98t101.5 -39q39 0 91 27.5t95 70.5l8 209l-276 -84q-59 -18 -59 -86zM520 1247q0 41 29 72t74 31q41 0 62.5 -27t21.5 -61q0 -41 -29 -72t-74 -31q-41 0 -62.5 27.5t-21.5 60.5z" />
<glyph unicode="&#xe5;" horiz-adv-x="954" d="M84 238q0 59 29.5 104t79.5 59l387 107l4 90q0 104 -47.5 160.5t-133.5 56.5q-51 0 -94 -16.5t-78 -34.5q-39 -23 -73 -51l-11 6l-24 88q70 39 133 72q53 27 109.5 49t91.5 22q135 0 209.5 -69.5t74.5 -194.5q0 -29 -6 -88t-12 -130t-12 -139.5t-6 -113.5q0 -94 83 -94 q25 0 47.5 7t38.5 17q20 10 37 27l29 -33q-25 -37 -51 -69q-25 -29 -56.5 -55.5t-70.5 -39.5q-168 0 -182 166l-9 2q-74 -74 -134 -116.5t-91 -42.5q-57 0 -105 18t-83 52t-54.5 81t-19.5 103zM240 260q0 -59 39.5 -98t101.5 -39q39 0 91 27.5t95 70.5l8 209l-276 -84 q-59 -18 -59 -86zM281 1278q0 74 47 123t125 49q43 0 72.5 -13.5t48 -35t27.5 -50t9 -57.5q0 -72 -45 -126t-129 -54q-76 0 -115.5 46t-39.5 118zM346 1290q0 -53 36 -75.5t69 -22.5q12 0 27.5 2t29.5 10t23.5 24.5t9.5 43.5q0 43 -26.5 70.5t-78.5 27.5q-45 0 -67.5 -21.5 t-22.5 -58.5z" />
<glyph unicode="&#xe6;" horiz-adv-x="1337" d="M61 238q0 59 30 103t79 58l391 107l2 102q0 104 -45 158.5t-131 54.5q-51 0 -96 -17.5t-80 -37.5q-41 -23 -76 -53l-10 6l-25 88q70 39 136 72q53 27 109 49t89 22q201 0 254 -164q59 78 141 121t170 43q131 0 206 -76.5t75 -214.5q0 -8 -1 -17t-3 -21l-19 -29l-552 -131 q6 -80 30.5 -144.5t64.5 -111.5t93 -73t117 -26q47 0 92 10.5t80 24.5q41 16 80 37l12 -4l22 -59q-55 -39 -110 -70q-47 -27 -101.5 -48.5t-101.5 -21.5q-129 0 -227.5 57.5t-147.5 162.5q-80 -86 -155.5 -141.5t-128.5 -69.5q-57 0 -105.5 18t-83.5 52t-54.5 81t-19.5 103z M211 260q0 -57 41 -100t96 -43q43 0 103.5 35.5t132.5 103.5q-25 76 -25 174l-283 -84q-35 -10 -50 -33.5t-15 -52.5zM702 537l359 102q41 12 41 37q0 68 -42 114t-108 46q-113 0 -181.5 -78t-68.5 -207v-14z" />
<glyph unicode="&#xe7;" horiz-adv-x="868" d="M74 428q0 111 35.5 206t99 165.5t150.5 110.5t188 40q49 0 92 -6t76 -14q37 -8 71 -19l7 -14q-10 -37 -19 -82q-8 -39 -15 -90t-9 -111l-84 -6v64q0 76 -46.5 122t-121.5 46q-127 0 -193.5 -88t-66.5 -254q0 -180 74.5 -282.5t203.5 -102.5q43 0 84 10t74 22q37 14 74 35 l12 -4l22 -63q-45 -33 -92 -62q-41 -25 -86 -47t-84 -27l-26 -79q25 -18 55.5 -38t57 -42.5t44 -48t17.5 -54.5q0 -41 -22.5 -75.5t-58.5 -60t-79 -41t-86 -15.5q-23 0 -47.5 5t-45 14t-33.5 22.5t-13 32.5q0 20 17 55t34 59h18q2 -57 33 -87t80 -30q41 0 69.5 22t28.5 56 q0 18 -15.5 38t-41 40.5t-56 38.5t-61.5 37l47 154q-168 20 -265 139t-97 309z" />
<glyph unicode="&#xe8;" horiz-adv-x="917" d="M74 428q0 104 36.5 199.5t98 167t143.5 113.5t174 42q305 0 305 -297q-2 -43 -4 -56t-8 -44l-26 -25h-566v-32q0 -86 21.5 -157t61.5 -120t96.5 -76.5t123.5 -27.5q47 0 93.5 9t81.5 21q41 14 77 33l13 -4l22 -59q-55 -39 -110 -70q-47 -27 -101.5 -48.5t-101.5 -21.5 q-96 0 -176 33t-136.5 92.5t-87 142.5t-30.5 185zM236 604l370 19q31 4 41 14t10 41q0 82 -44 125t-126 43q-96 0 -164.5 -64.5t-86.5 -177.5zM237 1374l78 84l21 4q45 -57 98 -116q43 -51 98.5 -114t110.5 -122l-41 -39l-18 -4q-66 59 -128.5 110.5t-109.5 90.5 q-57 45 -107 84z" />
<glyph unicode="&#xe9;" horiz-adv-x="917" d="M74 428q0 104 36.5 199.5t98 167t143.5 113.5t174 42q305 0 305 -297q-2 -43 -4 -56t-8 -44l-26 -25h-566v-32q0 -86 21.5 -157t61.5 -120t96.5 -76.5t123.5 -27.5q47 0 93.5 9t81.5 21q41 14 77 33l13 -4l22 -59q-55 -39 -110 -70q-47 -27 -101.5 -48.5t-101.5 -21.5 q-96 0 -176 33t-136.5 92.5t-87 142.5t-30.5 185zM236 604l370 19q31 4 41 14t10 41q0 82 -44 125t-126 43q-96 0 -164.5 -64.5t-86.5 -177.5zM352 1110q55 59 109.5 121.5t99.5 116.5q51 59 98 116l21 -4l78 -84l-2 -22q-53 -41 -109 -86q-49 -41 -109.5 -91.5 t-125.5 -109.5l-19 4z" />
<glyph unicode="&#xea;" horiz-adv-x="917" d="M74 428q0 104 36.5 199.5t98 167t143.5 113.5t174 42q305 0 305 -297q-2 -43 -4 -56t-8 -44l-26 -25h-566v-32q0 -86 21.5 -157t61.5 -120t96.5 -76.5t123.5 -27.5q47 0 93.5 9t81.5 21q41 14 77 33l13 -4l22 -59q-55 -39 -110 -70q-47 -27 -101.5 -48.5t-101.5 -21.5 q-96 0 -176 33t-136.5 92.5t-87 142.5t-30.5 185zM199 1126q49 53 99 107.5t91 101.5q47 53 92 105h29q45 -51 92 -105q41 -47 90 -101t101 -108l-29 -45l-19 -2q-72 63 -140 114.5t-109 84.5q-43 -33 -110 -83t-140 -116l-19 2zM236 604l370 19q31 4 41 14t10 41 q0 82 -44 125t-126 43q-96 0 -164.5 -64.5t-86.5 -177.5z" />
<glyph unicode="&#xeb;" horiz-adv-x="917" d="M74 428q0 104 36.5 199.5t98 167t143.5 113.5t174 42q305 0 305 -297q-2 -43 -4 -56t-8 -44l-26 -25h-566v-32q0 -86 21.5 -157t61.5 -120t96.5 -76.5t123.5 -27.5q47 0 93.5 9t81.5 21q41 14 77 33l13 -4l22 -59q-55 -39 -110 -70q-47 -27 -101.5 -48.5t-101.5 -21.5 q-96 0 -176 33t-136.5 92.5t-87 142.5t-30.5 185zM229 1247q0 41 29 72t74 31q41 0 62.5 -27t21.5 -61q0 -41 -29 -72t-74 -31q-41 0 -62.5 27.5t-21.5 60.5zM236 604l370 19q31 4 41 14t10 41q0 82 -44 125t-126 43q-96 0 -164.5 -64.5t-86.5 -177.5zM569 1247q0 41 29 72 t74 31q41 0 62.5 -27t21.5 -61q0 -41 -29 -72t-74 -31q-41 0 -62.5 27.5t-21.5 60.5z" />
<glyph unicode="&#xec;" horiz-adv-x="577" d="M14 1374l78 84l21 4q45 -57 98 -116q43 -51 98.5 -114t110.5 -122l-41 -39l-18 -4q-66 59 -128.5 110.5t-109.5 90.5q-57 45 -107 84zM86 815l8 76q51 8 103.5 17.5t95.5 19.5q51 10 96 22l10 -24q-10 -23 -18 -93.5t-14.5 -171t-10.5 -220t-4 -240.5q0 -115 72 -115 h22.5t22.5 2q12 0 27 2l4 -8l-17 -88q-31 0 -63 2q-29 2 -59.5 3t-59.5 1q-33 0 -69.5 -4t-67.5 -8q-37 -6 -74 -13l8 84q61 16 88 48t27 86v520q0 111 -76 110q-14 0 -35 -4z" />
<glyph unicode="&#xed;" horiz-adv-x="577" d="M86 815l8 76q51 8 103.5 17.5t95.5 19.5q51 10 96 22l10 -24q-10 -23 -18 -93.5t-14.5 -171t-10.5 -220t-4 -240.5q0 -115 72 -115h22.5t22.5 2q12 0 27 2l4 -8l-17 -88q-31 0 -63 2q-29 2 -59.5 3t-59.5 1q-33 0 -69.5 -4t-67.5 -8q-37 -6 -74 -13l8 84q61 16 88 48 t27 86v520q0 111 -76 110q-14 0 -35 -4zM145 1110q55 59 109.5 121.5t99.5 116.5q51 59 98 116l21 -4l78 -84l-2 -22q-53 -41 -109 -86q-49 -41 -109.5 -91.5t-125.5 -109.5l-19 4z" />
<glyph unicode="&#xee;" horiz-adv-x="577" d="M-2 1126q49 53 99 107.5t91 101.5q47 53 92 105h29q45 -51 92 -105q41 -47 90 -101t101 -108l-29 -45l-19 -2q-72 63 -140 114.5t-109 84.5q-43 -33 -110 -83t-140 -116l-19 2zM86 815l8 76q51 8 103.5 17.5t95.5 19.5q51 10 96 22l10 -24q-10 -23 -18 -93.5t-14.5 -171 t-10.5 -220t-4 -240.5q0 -115 72 -115h22.5t22.5 2q12 0 27 2l4 -8l-17 -88q-31 0 -63 2q-29 2 -59.5 3t-59.5 1q-33 0 -69.5 -4t-67.5 -8q-37 -6 -74 -13l8 84q61 16 88 48t27 86v520q0 111 -76 110q-14 0 -35 -4z" />
<glyph unicode="&#xef;" horiz-adv-x="577" d="M24 1247q0 41 29 72t74 31q41 0 62.5 -27t21.5 -61q0 -41 -29 -72t-74 -31q-41 0 -62.5 27.5t-21.5 60.5zM86 815l8 76q51 8 103.5 17.5t95.5 19.5q51 10 96 22l10 -24q-10 -23 -18 -93.5t-14.5 -171t-10.5 -220t-4 -240.5q0 -115 72 -115h22.5t22.5 2q12 0 27 2l4 -8 l-17 -88q-31 0 -63 2q-29 2 -59.5 3t-59.5 1q-33 0 -69.5 -4t-67.5 -8q-37 -6 -74 -13l8 84q61 16 88 48t27 86v520q0 111 -76 110q-14 0 -35 -4zM364 1247q0 41 29 72t74 31q41 0 62.5 -27t21.5 -61q0 -41 -29 -72t-74 -31q-41 0 -62.5 27.5t-21.5 60.5z" />
<glyph unicode="&#xf0;" horiz-adv-x="1040" d="M88 422q0 104 36 196.5t98.5 161t145.5 108.5t177 40q23 0 50.5 -8.5t49.5 -18.5q27 -12 51 -27l4 5q-35 82 -83 154.5t-111 137.5l-273 -131l-18 7l-8 61l242 119q-143 123 -340 215l30 67l21 9q227 -98 397 -238l283 137l16 -10l8 -59l-248 -121q164 -154 250 -339.5 t86 -391.5q0 -111 -34.5 -205t-96 -165t-144.5 -111t-179 -40q-90 0 -166 33t-130.5 91.5t-84 141.5t-29.5 181zM252 481q0 -90 22.5 -164.5t62.5 -128t95 -83t123 -29.5q106 0 167.5 93t61.5 253q0 166 -36 311q-25 23 -81.5 53.5t-154.5 30.5q-123 0 -191.5 -88 t-68.5 -248z" />
<glyph unicode="&#xf1;" horiz-adv-x="1150" d="M80 825l6 68q53 8 104.5 18.5t92.5 20.5q47 10 90 20l12 -16q-6 -18 -10 -41q-4 -18 -7 -43t-6 -51l5 -6q18 12 58 37.5t86 52t89 46t68 19.5q129 0 204.5 -70.5t75.5 -193.5q0 -27 -4 -89t-10 -136t-10 -144.5t-4 -115.5q0 -115 71 -115h22.5t22.5 2q12 0 27 2l4 -8 l-16 -88q-31 0 -64 2q-29 2 -59.5 3t-59.5 1q-33 0 -69.5 -4t-67.5 -8q-37 -6 -74 -13l9 84q61 16 87.5 48t26.5 86l8 405q0 102 -44 157.5t-126 55.5q-37 0 -75.5 -12.5t-72.5 -29.5t-61.5 -34.5t-41.5 -29.5q-2 -53 -5.5 -127t-6.5 -148t-5 -136.5t-2 -92.5 q0 -63 16.5 -89t57.5 -26h22.5t22.5 2q12 0 27 2l4 -8l-19 -88q-33 0 -65 2q-29 2 -60.5 3t-60.5 1q-33 0 -69 -2t-64 -4q-37 -4 -70 -6l10 84q59 10 84 36.5t25 84.5v499q0 70 -22.5 97.5t-77.5 27.5h-23zM252 1171v11l155 182l33 8q25 0 67 -10t87 -23.5t84 -23.5t61 -10 q16 0 39 16t43 39q23 25 47 57h12l45 -43v-10l-155 -182l-33 -8q-25 0 -66.5 10t-87 23.5t-85 23.5t-60.5 10q-18 0 -40.5 -17.5t-43.5 -39.5q-23 -25 -45 -56h-12z" />
<glyph unicode="&#xf2;" horiz-adv-x="1019" d="M74 430q0 111 36.5 205t100 164.5t151 110.5t187.5 40q88 0 160.5 -33.5t125 -93t82 -143.5t29.5 -184q0 -111 -37 -205t-100.5 -165t-150.5 -111t-187 -40q-88 0 -161.5 34t-126 93.5t-81 143.5t-28.5 184zM238 489q0 -92 21.5 -167.5t59 -131t90.5 -85t119 -29.5 q117 0 183.5 93t66.5 253q0 92 -21.5 169t-59.5 132t-92 86t-118 31q-117 0 -183 -94.5t-66 -256.5zM256 1374l78 84l21 4q45 -57 98 -116q43 -51 98.5 -114t110.5 -122l-41 -39l-18 -4q-66 59 -128.5 110.5t-109.5 90.5q-57 45 -107 84z" />
<glyph unicode="&#xf3;" horiz-adv-x="1019" d="M74 430q0 111 36.5 205t100 164.5t151 110.5t187.5 40q88 0 160.5 -33.5t125 -93t82 -143.5t29.5 -184q0 -111 -37 -205t-100.5 -165t-150.5 -111t-187 -40q-88 0 -161.5 34t-126 93.5t-81 143.5t-28.5 184zM238 489q0 -92 21.5 -167.5t59 -131t90.5 -85t119 -29.5 q117 0 183.5 93t66.5 253q0 92 -21.5 169t-59.5 132t-92 86t-118 31q-117 0 -183 -94.5t-66 -256.5zM373 1110q55 59 109.5 121.5t99.5 116.5q51 59 98 116l21 -4l78 -84l-2 -22q-53 -41 -109 -86q-49 -41 -109.5 -91.5t-125.5 -109.5l-19 4z" />
<glyph unicode="&#xf4;" horiz-adv-x="1019" d="M74 430q0 111 36.5 205t100 164.5t151 110.5t187.5 40q88 0 160.5 -33.5t125 -93t82 -143.5t29.5 -184q0 -111 -37 -205t-100.5 -165t-150.5 -111t-187 -40q-88 0 -161.5 34t-126 93.5t-81 143.5t-28.5 184zM217 1126q49 53 99 107.5t91 101.5q47 53 92 105h29 q45 -51 92 -105q41 -47 90 -101t101 -108l-29 -45l-19 -2q-72 63 -140 114.5t-109 84.5q-43 -33 -110 -83t-140 -116l-19 2zM238 489q0 -92 21.5 -167.5t59 -131t90.5 -85t119 -29.5q117 0 183.5 93t66.5 253q0 92 -21.5 169t-59.5 132t-92 86t-118 31q-117 0 -183 -94.5 t-66 -256.5z" />
<glyph unicode="&#xf5;" horiz-adv-x="1019" d="M74 430q0 111 36.5 205t100 164.5t151 110.5t187.5 40q88 0 160.5 -33.5t125 -93t82 -143.5t29.5 -184q0 -111 -37 -205t-100.5 -165t-150.5 -111t-187 -40q-88 0 -161.5 34t-126 93.5t-81 143.5t-28.5 184zM176 1171v11l155 182l33 8q25 0 67 -10t87 -23.5t84 -23.5 t61 -10q16 0 39 16t43 39q23 25 47 57h12l45 -43v-10l-155 -182l-33 -8q-25 0 -66.5 10t-87 23.5t-85 23.5t-60.5 10q-18 0 -40.5 -17.5t-43.5 -39.5q-23 -25 -45 -56h-12zM238 489q0 -92 21.5 -167.5t59 -131t90.5 -85t119 -29.5q117 0 183.5 93t66.5 253q0 92 -21.5 169 t-59.5 132t-92 86t-118 31q-117 0 -183 -94.5t-66 -256.5z" />
<glyph unicode="&#xf6;" horiz-adv-x="1019" d="M74 430q0 111 36.5 205t100 164.5t151 110.5t187.5 40q88 0 160.5 -33.5t125 -93t82 -143.5t29.5 -184q0 -111 -37 -205t-100.5 -165t-150.5 -111t-187 -40q-88 0 -161.5 34t-126 93.5t-81 143.5t-28.5 184zM238 489q0 -92 21.5 -167.5t59 -131t90.5 -85t119 -29.5 q117 0 183.5 93t66.5 253q0 92 -21.5 169t-59.5 132t-92 86t-118 31q-117 0 -183 -94.5t-66 -256.5zM247 1247q0 41 29 72t74 31q41 0 62.5 -27t21.5 -61q0 -41 -29 -72t-74 -31q-41 0 -62.5 27.5t-21.5 60.5zM587 1247q0 41 29 72t74 31q41 0 62.5 -27t21.5 -61 q0 -41 -29 -72t-74 -31q-41 0 -62.5 27.5t-21.5 60.5z" />
<glyph unicode="&#xf7;" d="M37 498l22 100q88 -2 177 -2h313q61 0 137 1t143 5q78 2 158 6l12 -20l-16 -105l-465 -2q-70 0 -150.5 -1t-152.5 -1h-166zM387 176q0 53 34 90t93 37q57 0 87 -35t30 -82q0 -53 -35 -90t-94 -37t-87 36t-28 81zM387 891q0 53 34 90t93 37q57 0 87 -35t30 -82 q0 -53 -35 -90t-94 -37t-87 36t-28 81z" />
<glyph unicode="&#xf8;" horiz-adv-x="1019" d="M74 430q0 111 36.5 205t100 164.5t151 110.5t187.5 40q80 0 149 -28l97 182l59 -14l6 -25l-96 -178q86 -59 134 -159.5t48 -231.5q0 -111 -37 -205t-100.5 -165t-150.5 -111t-187 -40q-47 0 -88 9.5t-78 25.5l-112 -211l-56 13l-4 20l111 213q-80 59 -125 157.5 t-45 227.5zM238 489q0 -188 81 -301l312 603q-66 49 -144 49q-117 0 -183 -94.5t-66 -256.5zM369 133q69 -57 159 -57q117 0 183.5 93t66.5 253q0 98 -24.5 179t-67.5 136z" />
<glyph unicode="&#xf9;" horiz-adv-x="1107" d="M57 813l9 76q47 8 99 18.5t95 20.5q51 10 98 22l13 -24q-10 -27 -19.5 -91.5t-17.5 -149.5t-12.5 -181t-4.5 -187q0 -201 164 -200q72 0 134.5 40t113.5 76v476q0 61 -22.5 85.5t-79.5 24.5q-4 0 -12.5 -1t-16.5 -1h-20l8 74q53 8 109.5 17.5t103.5 19.5q53 10 102 22 l12 -24q-10 -23 -18 -91.5t-14.5 -165t-9.5 -214t-3 -240.5q0 -94 84 -94q25 0 47.5 7t38.5 17q20 10 37 27l29 -33q-33 -45 -64 -82q-29 -31 -58.5 -56.5t-55.5 -25.5q-168 0 -183 166l-10 4q-98 -76 -177 -123t-107 -47q-133 0 -203 60.5t-70 177.5l8 498q0 111 -75 110 q-14 0 -35 -4q-8 -2 -17 -4zM266 1374l78 84l21 4q45 -57 98 -116q43 -51 98.5 -114t110.5 -122l-41 -39l-18 -4q-66 59 -128.5 110.5t-109.5 90.5q-57 45 -107 84z" />
<glyph unicode="&#xfa;" horiz-adv-x="1107" d="M57 813l9 76q47 8 99 18.5t95 20.5q51 10 98 22l13 -24q-10 -27 -19.5 -91.5t-17.5 -149.5t-12.5 -181t-4.5 -187q0 -201 164 -200q72 0 134.5 40t113.5 76v476q0 61 -22.5 85.5t-79.5 24.5q-4 0 -12.5 -1t-16.5 -1h-20l8 74q53 8 109.5 17.5t103.5 19.5q53 10 102 22 l12 -24q-10 -23 -18 -91.5t-14.5 -165t-9.5 -214t-3 -240.5q0 -94 84 -94q25 0 47.5 7t38.5 17q20 10 37 27l29 -33q-33 -45 -64 -82q-29 -31 -58.5 -56.5t-55.5 -25.5q-168 0 -183 166l-10 4q-98 -76 -177 -123t-107 -47q-133 0 -203 60.5t-70 177.5l8 498q0 111 -75 110 q-14 0 -35 -4q-8 -2 -17 -4zM381 1110q55 59 109.5 121.5t99.5 116.5q51 59 98 116l21 -4l78 -84l-2 -22q-53 -41 -109 -86q-49 -41 -109.5 -91.5t-125.5 -109.5l-19 4z" />
<glyph unicode="&#xfb;" horiz-adv-x="1107" d="M57 813l9 76q47 8 99 18.5t95 20.5q51 10 98 22l13 -24q-10 -27 -19.5 -91.5t-17.5 -149.5t-12.5 -181t-4.5 -187q0 -201 164 -200q72 0 134.5 40t113.5 76v476q0 61 -22.5 85.5t-79.5 24.5q-4 0 -12.5 -1t-16.5 -1h-20l8 74q53 8 109.5 17.5t103.5 19.5q53 10 102 22 l12 -24q-10 -23 -18 -91.5t-14.5 -165t-9.5 -214t-3 -240.5q0 -94 84 -94q25 0 47.5 7t38.5 17q20 10 37 27l29 -33q-33 -45 -64 -82q-29 -31 -58.5 -56.5t-55.5 -25.5q-168 0 -183 166l-10 4q-98 -76 -177 -123t-107 -47q-133 0 -203 60.5t-70 177.5l8 498q0 111 -75 110 q-14 0 -35 -4q-8 -2 -17 -4zM228 1126q49 53 99 107.5t91 101.5q47 53 92 105h29q45 -51 92 -105q41 -47 90 -101t101 -108l-29 -45l-19 -2q-72 63 -140 114.5t-109 84.5q-43 -33 -110 -83t-140 -116l-19 2z" />
<glyph unicode="&#xfc;" horiz-adv-x="1107" d="M57 813l9 76q47 8 99 18.5t95 20.5q51 10 98 22l13 -24q-10 -27 -19.5 -91.5t-17.5 -149.5t-12.5 -181t-4.5 -187q0 -201 164 -200q72 0 134.5 40t113.5 76v476q0 61 -22.5 85.5t-79.5 24.5q-4 0 -12.5 -1t-16.5 -1h-20l8 74q53 8 109.5 17.5t103.5 19.5q53 10 102 22 l12 -24q-10 -23 -18 -91.5t-14.5 -165t-9.5 -214t-3 -240.5q0 -94 84 -94q25 0 47.5 7t38.5 17q20 10 37 27l29 -33q-33 -45 -64 -82q-29 -31 -58.5 -56.5t-55.5 -25.5q-168 0 -183 166l-10 4q-98 -76 -177 -123t-107 -47q-133 0 -203 60.5t-70 177.5l8 498q0 111 -75 110 q-14 0 -35 -4q-8 -2 -17 -4zM258 1247q0 41 29 72t74 31q41 0 62.5 -27t21.5 -61q0 -41 -29 -72t-74 -31q-41 0 -62.5 27.5t-21.5 60.5zM598 1247q0 41 29 72t74 31q41 0 62.5 -27t21.5 -61q0 -41 -29 -72t-74 -31q-41 0 -62.5 27.5t-21.5 60.5z" />
<glyph unicode="&#xfd;" horiz-adv-x="913" d="M-18 860l12 68q35 -2 67 -2h103q45 0 89 1t79 5q41 4 78 8l4 -10l-13 -64q-72 -4 -96 -14t-24 -39q0 -14 8 -48t20.5 -80t28.5 -101.5t33 -110.5q39 -129 92 -287h8q35 84 77 185.5t78 192.5t60.5 157.5t24.5 83.5q0 53 -78 53h-94l-4 8l12 68q31 -2 65 -4q29 -2 66 -3 t76 -1h114q31 0 60 2l-15 -76q-47 -8 -69.5 -32.5t-44.5 -84.5l-264 -622q-80 -182 -136.5 -300t-105.5 -186.5t-100.5 -95.5t-118.5 -25q-8 0 -22.5 14.5t-30 34t-26.5 39t-11 29.5l10 15q119 0 224.5 95t174.5 265q-25 76 -58.5 176t-70.5 204.5t-73.5 203t-65.5 172.5 q-25 51 -56.5 73.5t-82.5 24.5zM330 1110q55 59 109.5 121.5t99.5 116.5q51 59 98 116l21 -4l78 -84l-2 -22q-53 -41 -109 -86q-49 -41 -109.5 -91.5t-125.5 -109.5l-19 4z" />
<glyph unicode="&#xfe;" horiz-adv-x="1044" d="M43 -485l10 79q45 6 68.5 18.5t34 36t12.5 60.5t2 92l4 392v1089q0 111 -76 111q-14 0 -35 -4q-8 -2 -16 -5q0 10 1 18.5t3 18.5l4 39q53 6 107.5 16.5t97.5 20.5q51 10 98 23l13 -27q-6 -10 -13.5 -65.5t-13.5 -145.5t-11 -211t-9 -264q98 70 161.5 106.5t85.5 36.5 q23 0 43.5 -2t40.5 -6q141 -29 226.5 -143.5t85.5 -286.5q0 -111 -40 -208t-109.5 -171t-163 -116t-197.5 -42q-35 0 -70 2.5t-76 6.5v-175t7.5 -115t28 -63.5t63.5 -19.5h41q12 0 28 2l4 -6l-16 -78h-129q-51 0 -103.5 -2t-95.5 -4t-69.5 -4t-26.5 -4zM313 131 q37 -18 94.5 -30.5t106.5 -12.5q137 0 216 94t79 254q0 78 -20.5 146.5t-57.5 119t-86 80t-106 29.5q-39 0 -99.5 -30.5t-120.5 -80.5z" />
<glyph unicode="&#xff;" horiz-adv-x="913" d="M-18 860l12 68q35 -2 67 -2h103q45 0 89 1t79 5q41 4 78 8l4 -10l-13 -64q-72 -4 -96 -14t-24 -39q0 -14 8 -48t20.5 -80t28.5 -101.5t33 -110.5q39 -129 92 -287h8q35 84 77 185.5t78 192.5t60.5 157.5t24.5 83.5q0 53 -78 53h-94l-4 8l12 68q31 -2 65 -4q29 -2 66 -3 t76 -1h114q31 0 60 2l-15 -76q-47 -8 -69.5 -32.5t-44.5 -84.5l-264 -622q-80 -182 -136.5 -300t-105.5 -186.5t-100.5 -95.5t-118.5 -25q-8 0 -22.5 14.5t-30 34t-26.5 39t-11 29.5l10 15q119 0 224.5 95t174.5 265q-25 76 -58.5 176t-70.5 204.5t-73.5 203t-65.5 172.5 q-25 51 -56.5 73.5t-82.5 24.5zM206 1247q0 41 29 72t74 31q41 0 62.5 -27t21.5 -61q0 -41 -29 -72t-74 -31q-41 0 -62.5 27.5t-21.5 60.5zM546 1247q0 41 29 72t74 31q41 0 62.5 -27t21.5 -61q0 -41 -29 -72t-74 -31q-41 0 -62.5 27.5t-21.5 60.5z" />
<glyph unicode="&#x152;" horiz-adv-x="1972" d="M84 608q0 152 51 284t140.5 229.5t209 152.5t258.5 55q104 0 213 -14.5t236 -14.5q217 0 364.5 6.5t258.5 22.5l6 -12q-10 -47 -19 -100q-8 -47 -16 -107.5t-12 -132.5l-99 -8q0 16 2 32q0 14 1 30t1 26q0 49 -8 78.5t-41 44t-95 18.5t-171 4q-49 0 -78 -2t-42 -9 t-17 -23.5t-6 -45.5l-17 -397l213 -2q29 0 70 3t82 7q47 6 98 12l8 -10l-28 -121q-51 0 -103 2q-43 2 -93 3.5t-91 1.5l-160 -15l-6 -391q0 -41 4 -65.5t21.5 -37t49 -16.5t87.5 -4q121 0 193.5 7t113.5 33t58.5 76t29.5 134l90 10l6 -10q-10 -51 -20 -106 q-10 -47 -19.5 -110t-15.5 -128l-10 -12q-125 4 -240 8q-49 2 -102.5 3t-103.5 2t-96 2t-83 1q-160 0 -284.5 -13.5t-235.5 -13.5q-123 0 -224.5 46.5t-174 130.5t-113.5 200.5t-41 255.5zM260 676q0 -133 32 -241.5t90 -187.5t139 -122t179 -43t168 18.5t113 59.5 t62.5 106.5t21.5 159.5l2 530q0 76 -16.5 125t-59.5 78t-114.5 40t-182.5 11q-96 0 -176 -38.5t-137 -109.5t-89 -169t-32 -217z" />
<glyph unicode="&#x153;" horiz-adv-x="1579" d="M74 430q0 111 35.5 205t98 164.5t147.5 110.5t184 40q102 0 182 -46t131 -132q74 94 167 136t171 42q147 0 227 -71.5t80 -202.5q0 -29 -4 -51.5t-8 -38.5q-6 -20 -10 -33l-27 -25h-557v-32q0 -86 21.5 -157t61.5 -120t96 -76.5t124 -27.5q47 0 93 9t81 21q41 14 78 33 l12 -4l23 -59q-55 -39 -111 -70q-47 -27 -101.5 -48.5t-101.5 -21.5q-49 0 -98 8.5t-95 29t-88 54t-75 85.5q-66 -86 -156 -131.5t-194 -45.5q-86 0 -158 34t-122 93.5t-78.5 143.5t-28.5 184zM238 489q0 -92 20.5 -167.5t57 -131t89 -85t113.5 -29.5q111 0 175.5 93 t64.5 253q0 92 -20.5 169t-57.5 132t-89 86t-114 31q-111 0 -175 -94.5t-64 -256.5zM899 604l371 19q31 2 41 13t10 42q0 82 -44 125t-126 43q-96 0 -164.5 -64.5t-87.5 -177.5z" />
<glyph unicode="&#x178;" horiz-adv-x="1101" d="M-39 1231l12 80l78 -4q35 -2 74 -2h74q43 0 93 2t95 6l102 8l7 -14l-7 -72q-92 -8 -123.5 -23.5t-31.5 -50.5q0 -14 16.5 -59t42 -103.5t55 -123t55 -119t43.5 -88.5l17 -35h10l234 434q33 59 33 102q0 53 -129 62l-4 8l12 80q45 -4 86 -8q35 -4 74 -5t67 -1q29 0 62.5 1 t62.5 3q33 2 64 4l8 -15l-13 -75q-53 -10 -85.5 -25.5t-59.5 -45.5t-54.5 -76t-68.5 -120l-205 -360q-16 -29 -24 -57.5t-12.5 -69.5t-5.5 -98.5t-3 -141.5q-2 -78 17.5 -108.5t72.5 -30.5h33t33 2q18 2 35 4l4 -8l-19 -94q-49 0 -96 2q-41 2 -85 3t-79 1q-39 0 -79.5 -4 t-75.5 -8q-39 -6 -78 -13l12 95q55 10 87 24.5t48.5 39t20.5 62t4 95.5v90q0 59 -11.5 108.5t-47.5 122.5l-185 375q-31 63 -52 105.5t-47 70t-62.5 41t-96.5 19.5zM321 1573q0 41 29 71.5t74 30.5q41 0 62.5 -26.5t21.5 -61.5q0 -41 -29 -71.5t-74 -30.5q-41 0 -62.5 27.5 t-21.5 60.5zM661 1573q0 41 29 71.5t74 30.5q41 0 62.5 -26.5t21.5 -61.5q0 -41 -29 -71.5t-74 -30.5q-41 0 -62.5 27.5t-21.5 60.5z" />
<glyph unicode="&#x2c6;" horiz-adv-x="815" d="M111 1126q49 53 99 107.5t91 101.5q47 53 92 105h29q45 -51 92 -105q41 -47 90 -101t101 -108l-29 -45l-19 -2q-72 63 -140 114.5t-109 84.5q-43 -33 -110 -83t-140 -116l-19 2z" />
<glyph unicode="&#x2dc;" horiz-adv-x="815" d="M72 1171v11l155 182l33 8q25 0 67 -10t87 -23.5t84 -23.5t61 -10q16 0 39 16t43 39q23 25 47 57h12l45 -43v-10l-155 -182l-33 -8q-25 0 -66.5 10t-87 23.5t-85 23.5t-60.5 10q-18 0 -40.5 -17.5t-43.5 -39.5q-23 -25 -45 -56h-12z" />
<glyph unicode="&#x2000;" horiz-adv-x="866" />
<glyph unicode="&#x2001;" horiz-adv-x="1733" />
<glyph unicode="&#x2002;" horiz-adv-x="866" />
<glyph unicode="&#x2003;" horiz-adv-x="1733" />
<glyph unicode="&#x2004;" horiz-adv-x="577" />
<glyph unicode="&#x2005;" horiz-adv-x="433" />
<glyph unicode="&#x2006;" horiz-adv-x="288" />
<glyph unicode="&#x2007;" horiz-adv-x="288" />
<glyph unicode="&#x2008;" horiz-adv-x="216" />
<glyph unicode="&#x2009;" horiz-adv-x="346" />
<glyph unicode="&#x200a;" horiz-adv-x="96" />
<glyph unicode="&#x2010;" horiz-adv-x="663" d="M74 446l12 107l356 41q68 6 103 12l30 6l15 -18l-10 -111l-492 -53z" />
<glyph unicode="&#x2011;" horiz-adv-x="663" d="M74 446l12 107l356 41q68 6 103 12l30 6l15 -18l-10 -111l-492 -53z" />
<glyph unicode="&#x2012;" horiz-adv-x="663" d="M74 446l12 107l356 41q68 6 103 12l30 6l15 -18l-10 -111l-492 -53z" />
<glyph unicode="&#x2013;" horiz-adv-x="937" d="M-12 477l22 101q88 -2 176 -3h314q61 0 137 1.5t143 5.5q66 2 112 3t46 3l12 -21l-16 -104q-123 0 -272.5 -1t-286.5 -1t-240.5 -1t-134.5 -1z" />
<glyph unicode="&#x2014;" horiz-adv-x="1880" d="M-12 477l22 101q176 -2 348 -3h613q82 0 179 1.5t195.5 2.5t191.5 3t167 3t121 2t55 1l12 -21l-16 -104h-355.5t-386 -1t-381 -1t-340 -1t-263 -1h-150.5z" />
<glyph unicode="&#x2018;" horiz-adv-x="360" d="M57 1012q0 55 26 103t63.5 88t83.5 72t89 54l37 -31v-20q-61 -39 -104 -94.5t-43 -108.5q0 -41 23.5 -73.5t58.5 -53.5l-4 -28q-20 -16 -52 -35t-67 -19q-47 0 -79 39t-32 107z" />
<glyph unicode="&#x2019;" horiz-adv-x="360" d="M4 897v21q61 39 104.5 94t43.5 108q0 41 -24 74t-58 53l4 29q20 16 52 34.5t67 18.5q47 0 78.5 -39t31.5 -106q0 -55 -25.5 -103.5t-63.5 -88.5t-84 -71.5t-89 -54.5z" />
<glyph unicode="&#x201a;" horiz-adv-x="487" d="M31 -270q70 47 116 114.5t46 132.5q0 43 -19.5 81t-46.5 63l4 29q20 16 52 34.5t67 18.5q43 0 73.5 -41t30.5 -119q0 -59 -27.5 -113.5t-69.5 -101.5t-93 -85t-96 -65l-37 31v21z" />
<glyph unicode="&#x201c;" horiz-adv-x="677" d="M57 1012q0 55 26 103t63.5 88t83.5 72t89 54l37 -31v-20q-61 -39 -104 -94.5t-43 -108.5q0 -41 23.5 -73.5t58.5 -53.5l-4 -28q-20 -16 -52 -35t-67 -19q-47 0 -79 39t-32 107zM375 1012q0 55 25.5 103t63.5 88t84 72t89 54l37 -31v-20q-61 -39 -104.5 -94.5 t-43.5 -108.5q0 -41 23.5 -73.5t58.5 -53.5l-4 -28q-20 -16 -52 -35t-67 -19q-47 0 -78.5 39t-31.5 107z" />
<glyph unicode="&#x201d;" horiz-adv-x="677" d="M4 897v21q61 39 104.5 94t43.5 108q0 41 -24 74t-58 53l4 29q20 16 52 34.5t67 18.5q47 0 78.5 -39t31.5 -106q0 -55 -25.5 -103.5t-63.5 -88.5t-84 -71.5t-89 -54.5zM322 897v21q61 39 104 94t43 108q0 41 -23.5 74t-58.5 53l4 29q20 16 52 34.5t67 18.5q47 0 79 -39 t32 -106q0 -55 -26 -103.5t-63.5 -88.5t-84 -71.5t-89.5 -54.5z" />
<glyph unicode="&#x201e;" horiz-adv-x="813" d="M63 -209q61 39 104.5 94.5t43.5 108.5q0 41 -23.5 73.5t-58.5 53.5l4 29q20 16 52 34.5t67 18.5q47 0 78.5 -39t31.5 -107q0 -55 -25.5 -103t-63 -88t-84 -72t-89.5 -54l-37 31v20zM381 -209q61 39 104 94.5t43 108.5q0 41 -23.5 73.5t-58.5 53.5l5 29q20 16 52 34.5 t66 18.5q47 0 79 -39t32 -107q0 -55 -25.5 -103t-63.5 -88t-84 -72t-89 -54l-37 31v20z" />
<glyph unicode="&#x2022;" horiz-adv-x="696" d="M123 461q0 47 16.5 89t47 73.5t72.5 50t91 18.5q51 0 93 -18.5t71 -49t45 -70.5t16 -85q0 -96 -63.5 -162.5t-167.5 -66.5q-53 0 -94 18t-68.5 49t-43 71t-15.5 83z" />
<glyph unicode="&#x2026;" horiz-adv-x="1347" d="M123 92q0 53 33.5 90t93.5 37q57 0 87 -34.5t30 -82.5q0 -53 -35 -90t-94 -37t-87 36t-28 81zM553 92q0 53 34 90t93 37q57 0 87 -34.5t30 -82.5q0 -53 -35 -90t-94 -37t-87 36t-28 81zM983 92q0 53 34 90t93 37q57 0 87 -34.5t30 -82.5q0 -53 -35 -90t-94 -37t-87 36 t-28 81z" />
<glyph unicode="&#x202f;" horiz-adv-x="346" />
<glyph unicode="&#x2039;" horiz-adv-x="534" d="M41 434v31q55 55 117 115l113.5 113.5t121.5 125.5l45 -31l2 -20l-219 -305l219 -318l-2 -20l-45 -31q-59 59 -121.5 119.5t-113.5 110.5q-61 57 -117 110z" />
<glyph unicode="&#x203a;" horiz-adv-x="534" d="M94 145l219 306l-219 317l2 20l45 31q59 -59 120 -119.5t114 -109.5q59 -57 119 -111v-30q-59 -55 -119 -115q-53 -51 -113.5 -113.5t-120.5 -126.5l-45 31z" />
<glyph unicode="&#x205f;" horiz-adv-x="433" />
<glyph unicode="&#x20ac;" horiz-adv-x="1204" d="M25 362l10 60h153q-2 14 -2 27.5v27.5q0 59 9 107h-160l-10 14l10 59h178q27 86 79 157t123.5 120t163 76.5t195.5 27.5q53 0 105.5 -6t95.5 -14q51 -8 98 -19l8 -12q-10 -39 -18 -82q-8 -39 -14.5 -88t-10.5 -108l-102 -7q0 12 2 25q0 10 1 24.5t1 30.5q0 143 -229 144 q-131 0 -217 -70t-115 -199h4l375 9l12 -19l-6 -61l-395 -2q-2 -12 -2 -25.5v-28.5q0 -29 2 -56.5t6 -51.5h8l375 8l12 -18l-6 -62l-373 -2q37 -125 123 -194.5t211 -69.5q109 0 173.5 57.5t92.5 184.5l103 8q-10 -43 -19 -90q-8 -41 -14 -89.5t-10 -93.5l-13 -16 q-45 -18 -98 -33q-47 -12 -111.5 -21t-140.5 -9q-199 0 -325.5 96t-163.5 270h-164z" />
<glyph unicode="&#x2122;" horiz-adv-x="1153" d="M4 1143q2 27 4 53q2 23 3 52.5t3 58.5l9 8l79 -8h256l82 8l9 -8q0 -29 2 -56.5t4 -50.5q2 -27 4 -51l-66 -6q-6 37 -11 57.5t-15.5 30.5t-29 13t-48.5 3q-2 -25 -3 -63.5t-2 -82.5t-2 -91t-1 -88q0 -53 43 -54h32q8 0 13 2l2 -2l-6 -53q-31 0 -56 2q-23 0 -45 1t-39 1 q-16 0 -38.5 -1t-45.5 -1q-25 -2 -51 -2l6 49q55 4 68.5 18.5t13.5 61.5v303q-33 0 -52.5 -3t-29.5 -13t-16 -29.5t-10 -52.5zM487 813l7 51q25 2 35 13.5t14 40.5q2 12 7 57t11 97t10 97t4 54q0 20 -12 26t-49 11l-6 6l8 43q18 -2 39 -2q16 -2 33.5 -2h29.5h26.5t27.5 2 q14 0 30 2q20 -66 39 -122.5t35 -99.5q18 -51 33 -92h8q14 41 33 92q16 43 35.5 99.5t42.5 120.5q16 0 43.5 -1t50.5 1h25.5t27.5 2q14 0 31 2l4 -4l-6 -45q-35 -4 -47.5 -12.5t-12.5 -28.5q0 -12 2.5 -45t4.5 -75t5 -86t7 -77q4 -41 12 -55.5t29 -14.5h14q4 0 8 2l4 -4 l-8 -49h-28q-12 0 -26.5 1t-27.5 1q-10 0 -29.5 -1t-38 -2t-32.5 -2t-16 -1l6 51q47 2 47 37q0 10 -3 52t-7 89q-4 53 -9 117h-6q-23 -55 -58.5 -147t-72.5 -199l-53 -6q-39 111 -72.5 204t-56.5 148h-8l-8 -127q-4 -47 -6.5 -90t-2.5 -49q0 -25 25 -25h29l4 -4l-8 -47h-37 q-16 0 -31.5 1t-26.5 1q-12 0 -26.5 -1t-26.5 -3q-14 -2 -29 -2z" />
<glyph unicode="&#xe000;" horiz-adv-x="931" d="M0 0v932h932v-932h-932z" />
</font>
</defs>
</svg>
