
<?xml version="1.0" standalone="no"?>
<!DOCTYPE svg PUBLIC "-//W3C//DTD SVG 1.1//EN" "http://www.w3.org/Graphics/SVG/1.1/DTD/svg11.dtd" >
<svg xmlns="http://www.w3.org/2000/svg">
<metadata>
This is a custom SVG font generated by IcoMoon.
<iconset grid="32"></iconset>
</metadata>
<defs>
<font id="iconFont" horiz-adv-x="1024" >
<font-face units-per-em="1024" ascent="960" descent="-64" />
<missing-glyph horiz-adv-x="1024" />
<glyph class="hidden" unicode="&#xf000;" d="M0,960L 1024 -64L0 -64 z" horiz-adv-x="0" />
<glyph unicode="&#xe001;" d="M 896,704L 896,832 L0,832 l0-704 c0-35.346, 28.654-64, 64-64l 864,0 c 53.022,0, 96,42.978, 96,96L 1024,704 L 896,704 z M 832,128L 64,128 L 64,768 l 768,0 L 832,128 zM 128,640L 768,640L 768,576L 128,576zM 512,512L 768,512L 768,448L 512,448zM 512,384L 768,384L 768,320L 512,320zM 512,256L 704,256L 704,192L 512,192zM 128,512L 448,512L 448,192L 128,192z"  />
<glyph unicode="&#xe002;" d="M 976,912c-64,64-128,64-192,0l-16-16l 192-192l 16,16C 1040,784, 1040,848, 976,912zM 64,192L0-64l 256,64l 640,640l-192,192L 64,192z M 256,128l-64,64l 512,512l 64-64L 256,128z"  />
<glyph unicode="&#xe003;" d="M 895.94,326.498c-0.012,0.706-0.030,1.402-0.042,2.106c-0.032,1.428-0.070,2.854-0.118,4.28C 885.75,648.532, 512,960, 512,960
		S 138.246,648.532, 128.22,332.878c-0.044-1.43-0.088-2.852-0.12-4.282c-0.014-0.704-0.030-1.402-0.042-2.106
		c-0.036-2.16-0.056-4.324-0.056-6.496c0-2.368, 0.028-4.722, 0.070-7.078c 0.004-0.196, 0.006-0.39, 0.014-0.586
		C 132.164,103.798, 302.482-64, 512-64c 209.516,0, 379.832,167.798, 383.918,376.336c 0.004,0.196, 0.008,0.392, 0.010,0.586
		c 0.042,2.356, 0.072,4.714, 0.072,7.078C 896,322.172, 895.976,324.336, 895.94,326.498z M 767.95,315.26l-0.008-0.406
		c-1.318-67.286-28.532-130.334-76.626-177.548C 643.174,90.034, 579.486,64, 512,64c-12.462,0-24.794,0.894-36.924,2.638
		c 139.056,82.846, 232.216,234.704, 232.216,408.322c0,19.456-1.18,38.634-3.452,57.48c 40.272-73.94, 62.064-142.8, 64.002-203.626
		l 0.004-0.144c 0.032-0.948, 0.052-1.892, 0.078-2.844l 0.028-1.448C 767.98,322.922, 768,321.46, 768,320
		C 768,318.416, 767.98,316.838, 767.95,315.26z"  />
<glyph unicode="&#xe004;" d="M0,832l0-768 l 1024,0 L 1024,832 L0,832 z M 960,128l-64,0 l-192,288l-128-96L 320,640L 128,128L 64,128 L 64,768 l 896,0 L 960,128 zM 704,608A96,96 10260 1 1 896,608A96,96 10260 1 1 704,608z"  />
<glyph unicode="&#xe005;" d="M 308.014,416A203.986,203.986 10260 1 1 715.986,416A203.986,203.986 10260 1 1 308.014,416zM 960,704L 736,704 c-16,64-32,128-96,128L 384,832 c-64,0-80-64-96-128L 64,704 c-35.2,0-64-28.8-64-64l0-512 c0-35.2, 28.8-64, 64-64l 896,0 
		c 35.2,0, 64,28.8, 64,64L 1024,640 C 1024,675.2, 995.2,704, 960,704z M 512,128c-159.058,0-288,128.942-288,288c0,159.058, 128.942,288, 288,288
		c 159.058,0, 288-128.942, 288-288C 800,256.942, 671.060,128, 512,128z M 960,576l-128,0 l0,64 l 128,0 L 960,576 z"  />
<glyph unicode="&#xe006;" d="M 311.51,896.902l-26.18-680.588c-34.93,17.924-78.754,25.68-124.736,19.156c-99.148-14.042-170.542-88.836-159.458-167.034
	c 11.086-78.204, 100.446-130.202, 199.59-116.156c 87.992,12.47, 154.042,72.79, 160.044,140.86l 0.020-0.038c 0.012,0.154, 0.022,0.386, 0.036,0.56
	c 0.146,1.73, 0.23,3.482, 0.294,5.222c 3.692,70.286, 26.296,604.164, 26.296,604.164l 556.71,57.358l-25.144-480.82
	c-35.726,19.884-81.644,28.742-129.928,21.9c-99.148-14.056-170.536-88.834-159.452-167.042c 11.082-78.196, 100.442-130.204, 199.59-116.142
	c 89.866,12.72, 156.82,75.364, 160.332,145.208l 0.042,0.042C 991.484,195.504, 1024,946.010, 1024,946.010L 311.51,896.902z"  />
<glyph unicode="&#xe007;" d="M0,832l0-768 l 1024,0 L 1024,832 L0,832 z M 192,128L 64,128 l0,128 l 128,0 L 192,128 z M 192,384L 64,384 l0,128 l 128,0 L 192,384 z M 192,640L 64,640 L 64,768 l 128,0 L 192,640 z M 768,128L 256,128 L 256,768 l 512,0 L 768,128 z
		 M 960,128l-128,0 l0,128 l 128,0 L 960,128 z M 960,384l-128,0 l0,128 l 128,0 L 960,384 z M 960,640l-128,0 L 832,768 l 128,0 L 960,640 zM 384,640L 384,256L 640,448 	z"  />
<glyph unicode="&#xe008;" d="M 978.84,703.748c-10.588,0-21.458-3.722-31.436-10.766L 768,566.368L 768,672 c0,52.8-43.2,96-96,96L 96,768 c-52.8,0-96-43.2-96-96l0-448 
	c0-52.8, 43.2-96, 96-96l 576,0 c 52.8,0, 96,43.2, 96,96l0,105.63 l 179.402-126.614c 9.978-7.042, 20.848-10.764, 31.434-10.766
	c 0.002,0, 0.002,0, 0.006,0c 14.088,0, 26.954,6.496, 35.292,17.822c 6.456,8.77, 9.868,20.054, 9.868,32.636L 1024.002,653.29 
	C 1024,686.416, 1001.282,703.748, 978.84,703.748z"  />
<glyph unicode="&#xe009;" d="M 817.57,611.85C 624.004,755.708, 557.304,870.868, 512.004,959.998l0,0C 512,959.998, 512,960, 512,960l0-0.002 
	c-45.296-89.13-112-204.292-305.566-348.148c-330.036-245.286-19.376-587.668, 253.758-399.224
	c-17.796-116.93-78.53-202.172-140.208-238.882L 319.984-64 l 192.016,0 l 192.016,0 l0,37.74 c-61.682,36.708-122.41,121.954-140.212,238.884
	C 836.94,24.178, 1147.604,366.564, 817.57,611.85z"  />
<glyph unicode="&#xe00a;" d="M 786.832,567.228c-59.032,0-112.086-24.596-149.852-64.694c-15.996-16.984-43.762-37.112-73.8-54.81
	c 14.11,53.868, 58.676,121.7, 89.628,151.456c 39.64,38.17, 63.984,91.83, 63.984,151.5C 716.798,865.574, 625.316,958.776, 512.004,960
	c-113.32-1.222-204.796-94.426-204.796-209.318c0-59.672, 24.344-113.33, 63.986-151.5c 30.954-29.756, 75.52-97.588, 89.628-151.456
	c-30.042,17.7-57.806,37.826-73.8,54.81c-37.768,40.098-90.82,64.694-149.85,64.694c-114.386,0-207.080-93.664-207.080-209.328
	c0-115.638, 92.692-209.338, 207.080-209.338c 59.042,0, 112.082,25.356, 149.85,65.452c 16.804,17.872, 46.444,40.138, 78.292,58.632
	c-3.002-147.692-73.532-256.168-145.318-298.906L 319.996-64 l 192.010,0 l 192.004,0 l0,37.74 c-71.792,42.736-142.32,151.216-145.32,298.906
	c 31.852-18.494, 61.488-40.768, 78.292-58.632c 37.766-40.094, 90.808-65.452, 149.852-65.452c 114.386,0, 207.078,93.7, 207.078,209.338
	C 993.91,473.564, 901.22,567.228, 786.832,567.228z"  />
<glyph unicode="&#xe00b;" d="M 512,960L 192,448L 512-64L 832,448 z"  />
<glyph unicode="&#xe00c;" d="M 448,576L 192-64l 97.192,0 L 512,130.958L 734.812-64L 832-64 L 576,576L 448,576 z M 298.048,28.79l 85.742,214.358l 79.62-69.666
			L 298.048,28.79z M 725.956,28.792l-165.36,144.688l 79.618,69.666L 725.956,28.792z M 512,216l-103.014,90.136L 491.33,512l 41.34,0 
			l 82.346-205.864L 512,216zM 733.742,831.998C 755.528,794.344, 768,750.628, 768,704s-12.472-90.344-34.258-127.998l 55.44-32
			C 816.408,591.070, 832,645.712, 832,704s-15.592,112.93-42.818,159.998L 733.742,831.998zM 290.256,576.002C 268.476,613.656, 256,657.372, 256,704s 12.472,90.344, 34.256,127.998L 234.82,863.996
			C 207.592,816.928, 192,762.288, 192,704s 15.592-112.928, 42.82-159.998L 290.256,576.002zM 68.504,960C 24.94,884.69,0,797.258,0,704s 24.94-180.69, 68.504-255.998l 55.438,32C 85.822,545.896, 64,622.398, 64,704
			S 85.822,862.104, 123.942,928L 68.504,960zM 1024,704c0,93.26-24.94,180.692-68.506,256l0,0L 900.060,928C 938.18,862.104, 960,785.602, 960,704s-21.82-158.106-59.942-224
			l 55.436-32l0,0C 999.062,523.308, 1024,610.74, 1024,704zM 448,704A64,64 10260 1 1 576,704A64,64 10260 1 1 448,704z"  />
<glyph unicode="&#xe00d;" d="M 480,256c 88.366,0, 160,71.634, 160,160L 640,800 c0,88.366-71.634,160-160,160s-160-71.634-160-160l0-384 C 320,327.634, 391.636,256, 480,256zM 704,512l0-96 c0-123.71-100.29-224-224-224c-123.712,0-224,100.29-224,224l0,96 L 192,512 l0-96 c0-148.238, 112.004-270.3, 256-286.22L 448,0 
		l-128,0 l0-64 l 128,0 l 64,0 l 128,0 l0,64 l-128,0 l0,129.78 c 143.994,15.92, 256,137.982, 256,286.22l0,96 L 704,512 z"  />
<glyph unicode="&#xe00e;" d="M 768,832c-98.358,0-188.060-36.996-256-97.81C 444.062,795.004, 354.358,832, 256,832S 67.938,795.004,0,734.192l0-17.192 l0-76.98 l0-384.008 
	L0,175 l0-13.152 c 0.684-0.612, 1.352-1.24, 2.040-1.848c 16.418-14.488, 34.080-27.596, 52.812-39.138c 18.86,15.262, 39.478,28.432, 61.522,39.138
	c 42.196,20.496, 89.566,32, 139.626,32s 97.432-11.504, 139.626-32c 22.042-10.708, 42.662-23.876, 61.522-39.138
	c 3.684-2.982, 7.3-6.044, 10.848-9.184c 16.216-14.356, 30.976-30.318, 44.004-47.66c 13.030,17.342, 27.788,33.304, 44.004,47.66
	c 3.546,3.138, 7.162,6.202, 10.848,9.184c 18.86,15.262, 39.478,28.432, 61.522,39.138c 42.196,20.496, 89.566,32, 139.626,32
	s 97.432-11.504, 139.626-32c 22.042-10.708, 42.662-23.876, 61.522-39.138c 18.732,11.542, 36.392,24.65, 52.81,39.138
	c 0.688,0.608, 1.358,1.236, 2.042,1.848L 1024,175 l0,81.012 L 1024,640.020 L 1024,717 l0,17.192 C 956.062,795.004, 866.358,832, 768,832z M 256,256
	c-69.952,0-135.516-18.73-192-51.41L 64,704.014 C 117.482,744.19, 183.96,768, 256,768c 72.050,0, 138.516-23.838, 192-64.026l0-499.384 
	C 391.516,237.27, 325.952,256, 256,256z M 768,256c-69.952,0-135.516-18.73-192-51.41L 576,703.974 C 629.484,744.162, 695.952,768, 768,768
	c 72.042,0, 138.518-23.812, 192-63.988l0-499.424 C 903.516,237.27, 837.952,256, 768,256z"  />
<glyph unicode="&#xe00f;" d="M 704,960L 64,960 l0-1024 l 896,0 L 960,704 L 704,960z M 896,0L 128,0 L 128,896 l 576,0 l0-192 l 192,0 L 896,0 z"  />
<glyph unicode="&#xe010;" d="M 512-64L 512,384L 64,384 	zM 64,960L 64,448L 576,448L 576-64L 960-64L 960,960 	z"  />
<glyph unicode="&#xe011;" d="M 448,576L 832,576L 832,512L 448,512zM 448,448L 832,448L 832,384L 448,384zM 448,320L 832,320L 832,256L 448,256zM 448,192L 704,192L 704,128L 448,128zM 960,768l-192,0 L 768,896 c0,35.2-28.8,64-64,64L 64,960 C 28.8,960,0,931.2,0,896l0-704 c0-35.2, 28.8-64, 64-64l 192,0 l0-128 c0-35.2, 28.8-64, 64-64l 640,0 
		c 35.2,0, 64,28.8, 64,64L 1024,704 C 1024,739.2, 995.2,768, 960,768z M 256,704l0-480 L 96,224 L 96,864 l 576,0 l0-96 L 320,768 C 284.8,768, 256,739.2, 256,704z M 928,32L 352,32 
		L 352,672 l 576,0 L 928,32 z"  />
<glyph unicode="&#xe012;" d="M 984.5,704L 39.5,704 c-26.4,0-43.764-21.18-38.586-47.068l 117.672-545.864C 123.764,85.18, 149.6,64, 176,64l 672,0 
		c 26.4,0, 52.236,21.18, 57.414,47.068l 117.672,545.864C 1028.264,682.82, 1010.9,704, 984.5,704zM 896,784c0,26.51-21.49,48-48,48L 416,832 l-32,64L 176,896 c-26.51,0-48-21.49-48-48l0-112 l 768,0 L 896,784 z"  />
<glyph unicode="&#xe013;" d="M 984.5,704L 896,704 L 896,784 c0,26.51-21.49,48-48,48L 416,832 l-32,64L 176,896 c-26.51,0-48-21.49-48-48l0-144 L 39.5,704 
	c-26.4,0-43.764-21.18-38.586-47.068l 117.672-545.864C 123.764,85.18, 149.6,64, 176,64l 672,0 c 26.4,0, 52.236,21.18, 57.414,47.068
	l 117.672,545.864C 1028.264,682.82, 1010.9,704, 984.5,704z M 192,832l 152.446,0 l 32-64L 832,768 l0-64 L 192,704 L 192,832 z M 843.594,128L 180.406,128 L 70.034,640l 883.932,0 
	L 843.594,128z"  />
<glyph unicode="&#xe014;" d="M 576,960L0,384l 448-448l 576,576L 1024,960 L 576,960 z M 832,675.2c-51.252,0-92.798,41.546-92.798,92.8S 780.748,860.8, 832,860.8
	s 92.8-41.546, 92.8-92.8S 883.252,675.2, 832,675.2z"  />
<glyph unicode="&#xe015;" d="M 128,32A96,96 8460 1 1 320,32A96,96 8460 1 1 128,32zM 768,32A96,96 8460 1 1 960,32A96,96 8460 1 1 768,32zM 960,448L 960,832 L 128,832 C 128,902.692, 70.694,960,0,960l0-64 c 35.29,0, 64-28.71, 64-64l 48.074-412.054C 82.78,396.488, 64,360.446, 64,320
		c0-70.694, 57.308-128, 128-128l 768,0 l0,64 L 192,256 c-35.346,0-64,28.654-64,64c0,0.22, 0.014,0.436, 0.016,0.656L 960,448z"  />
<glyph unicode="&#xe016;" d="M 812.988,576L 635.146,807.53C 638.268,815.070, 640,823.332, 640,832c0,35.346-28.652,64-64,64c-35.346,0-64-28.654-64-64
	s 28.654-64, 64-64c 2.842,0, 5.632,0.204, 8.376,0.564L 732.288,576L 291.714,576 l 147.912,192.564C 442.368,768.204, 445.16,768, 448,768
	c 35.346,0, 64,28.654, 64,64s-28.654,64-64,64s-64-28.654-64-64c0-8.668, 1.732-16.93, 4.854-24.468L 211.012,576L0,576 l0-128 l 64,0 l 64-512l 768,0 
	l 64,512l 64,0 l0,128 L 812.988,576 z M 320,64L 192,64 l0,128 l 128,0 L 320,64 z M 320,320L 192,320 l0,128 l 128,0 L 320,320 z M 576,64l-128,0 l0,128 l 128,0 L 576,64 z M 576,320l-128,0 l0,128 l 128,0 L 576,320 z
	 M 832,64l-128,0 l0,128 l 128,0 L 832,64 z M 832,320l-128,0 l0,128 l 128,0 L 832,320 z"  />
<glyph unicode="&#xe017;" d="M 384,960L 64,960 C 28.8,960,0,931.2,0,896l0-320 c0-35.2, 28.796-64, 64-64l 320,0 c 35.2,0, 64,28.8, 64,64L 448,896 C 448,931.2, 419.2,960, 384,960z M 384,704
		L 64,704 L 64,768 l 320,0 L 384,704 zM 960,960L 640,960 c-35.204,0-64-28.8-64-64l0-896 c0-35.2, 28.796-64, 64-64l 320,0 c 35.2,0, 64,28.8, 64,64L 1024,896 C 1024,931.2, 995.2,960, 960,960z
		 M 960,320L 640,320 l0,64 l 320,0 L 960,320 z M 960,512L 640,512 l0,64 l 320,0 L 960,512 zM 384,384L 64,384 C 28.8,384,0,355.2,0,320l0-320 c0-35.2, 28.796-64, 64-64l 320,0 c 35.2,0, 64,28.8, 64,64L 448,320 C 448,355.2, 419.2,384, 384,384
		z M 384,128l-128,0 l0-128 L 192,0 l0,128 L 64,128 l0,64 l 128,0 l0,128 l 64,0 l0-128 l 128,0 L 384,128 z"  />
<glyph unicode="&#xe018;" d="M 512,960C 229.23,960,0,730.77,0,448s 229.23-512, 512-512s 512,229.23, 512,512S 794.77,960, 512,960z M 320,448
	c0,106.040, 85.96,192, 192,192s 192-85.96, 192-192s-85.96-192-192-192S 320,341.96, 320,448z M 925.98,276.524L 925.98,276.524l-177.42,73.49
	C 761.078,380.198, 768,413.29, 768,448s-6.922,67.802-19.44,97.986l 122.126,50.586l 55.294,22.904C 947.888,566.654, 960,508.746, 960,448
	C 960,387.254, 947.886,329.346, 925.98,276.524L 925.98,276.524z M 683.478,861.98L 683.478,861.98L 683.478,861.98l-73.49-177.42
	C 579.804,697.078, 546.712,704, 512,704s-67.802-6.922-97.986-19.44l-34.46,83.198l-39.030,94.224C 393.346,883.886, 451.256,896, 512,896
	C 572.746,896, 630.654,883.886, 683.478,861.98z M 98.020,619.476l 94.224-39.030l 83.198-34.46C 262.924,515.802, 256,482.71, 256,448
	s 6.922-67.802, 19.44-97.986l-177.42-73.49C 76.114,329.346, 64,387.254, 64,448C 64,508.746, 76.114,566.654, 98.020,619.476z
	 M 340.524,34.020l 22.904,55.294l 50.586,122.126C 444.198,198.922, 477.29,192, 512,192s 67.802,6.922, 97.986,19.44l 73.49-177.42l0,0l0,0
	C 630.654,12.116, 572.746,0, 512,0C 451.256,0, 393.346,12.114, 340.524,34.020z"  />
<glyph unicode="&#xe019;" d="M 704,320c-64-64-64-128-128-128s-128,64-192,128s-128,128-128,192s 64,64, 128,128S 256,896, 192,896S0,704,0,704c0-128, 131.5-387.5, 256-512
	s 384-256, 512-256c0,0, 192,128, 192,192S 768,384, 704,320z"  />
<glyph unicode="&#xe01a;" d="M 651.216,429.636L 1024,172.528L 1024,764.422 	zM0,764.422L0,172.528L 372.776,429.672 	zM 512,304.618L 422.998,384.528L0,128L 1024,128L 600.99,384.528 	zM 993.28,768L 30.72,768L 512,406.148 	z"  />
<glyph unicode="&#xe01b;" d="M 512,960c-163.34,0-295.742-132.404-295.742-295.74c0-4.028, 0.122-8.202, 0.32-12.448c 0.1-2.468, 0.252-4.908, 0.418-7.364
	c 0.102-1.558, 0.226-3.148, 0.36-4.742c 0.208-2.608, 0.42-5.22, 0.7-7.812C 242.584,392.986, 512.002-64, 512.002-64
	s 269.41,456.984, 293.94,695.896c 0.286,2.59, 0.49,5.206, 0.702,7.81c 0.13,1.594, 0.262,3.184, 0.366,4.742
	c 0.168,2.458, 0.316,4.894, 0.42,7.366c 0.194,4.248, 0.314,8.422, 0.314,12.448C 807.732,827.598, 675.332,960, 512,960z M 640,640
	c0-70.694-57.308-128-128-128c-70.692,0-128,57.306-128,128s 57.308,128, 128,128C 582.692,768, 640,710.694, 640,640z"  />
<glyph unicode="&#xe01c;" d="M 512,960C 229.23,960,0,730.77,0,448s 229.23-512, 512-512s 512,229.23, 512,512S 794.77,960, 512,960z M 512,0
		C 264.576,0, 64,200.576, 64,448S 264.576,896, 512,896s 448-200.576, 448-448S 759.424,0, 512,0zM 256,192l 338.746,158.34L 768,704l-346.51-165.49L 256,192z M 512,512c 35.346,0, 64-28.654, 64-64c0-35.346-28.654-64-64-64
		c-35.346,0-64,28.654-64,64C 448,483.346, 476.654,512, 512,512z"  />
<glyph unicode="&#xe01d;" d="M 512,704L 512,384L 768,384L 768,448L 576,448L 576,704 	zM 576,896C 328.576,896, 128,695.424, 128,448L0,448 l 160-192l 160,192L 192,448 c0,212.078, 171.922,384, 384,384c 212.078,0, 384-171.922, 384-384
		c0-212.078-171.922-384-384-384c-21.808,0-43.184,1.846-64,5.34l0-64.77 c 20.906-2.99, 42.268-4.57, 64-4.57
		c 247.424,0, 448,200.576, 448,448S 823.424,896, 576,896z"  />
<glyph unicode="&#xe01e;" d="M 480,896C 214.904,896,0,681.096,0,416c0-265.098, 214.904-480, 480-480c 265.098,0, 480,214.902, 480,480
		C 960,681.096, 745.098,896, 480,896z M 480,0c-229.75,0-416,186.25-416,416S 250.25,832, 480,832s 416-186.25, 416-416
		S 709.75,0, 480,0zM 512,506.516L 512,768 l-64,0 l0-261.484 c-37.282-13.18-64-48.72-64-90.516c0-53.020, 42.98-96, 96-96c 41.796,0, 77.334,26.718, 90.516,64
		L 768,384 l0,64 l-197.484,0 C 560.876,475.27, 539.272,496.874, 512,506.516z"  />
<glyph unicode="&#xe01f;" d="M 1024,128c-106.042,0-192,85.96-192,192L 832,605.090 c0,140.738-109.942,258.128-256,285.084L 576,960 l-128,0 l0-69.824 
	C 301.936,863.218, 192,745.83, 192,605.092L 192,320 c0-106.040-85.962-192-192-192l0-64 l 429.598,0 c-5.208-11.424-8.11-24.118-8.11-37.49
	C 421.488-23.476, 462.012-64, 512-64c 49.984,0, 90.51,40.524, 90.51,90.51c0,13.376-2.902,26.066-8.112,37.49L 1024,64 L 1024,128 z"  />
<glyph unicode="&#xe020;" d="M 320,576L 448,576L 448,448L 320,448zM 512,576L 640,576L 640,448L 512,448zM 704,576L 832,576L 832,448L 704,448zM 128,192L 256,192L 256,64L 128,64zM 320,192L 448,192L 448,64L 320,64zM 512,192L 640,192L 640,64L 512,64zM 320,384L 448,384L 448,256L 320,256zM 512,384L 640,384L 640,256L 512,256zM 704,384L 832,384L 832,256L 704,256zM 128,384L 256,384L 256,256L 128,256zM 832,960l0-64 l-128,0 L 704,960 L 256,960 l0-64 L 128,896 L 128,960 L0,960 l0-1024 l 960,0 L 960,960 L 832,960 z M 896,0L 64,0 L 64,704 l 832,0 L 896,0 z"  />
<glyph unicode="&#xe021;" d="M 896,384L 896,128L 128,128L 128,384L0,384L0,0L 1024,0L 1024,384 		zM 832,896L 192,896 l0-704 l 640,0 L 832,896 z M 704,320L 320,320 l0,64 l 384,0 L 704,320 z M 704,512L 320,512 l0,64 l 384,0 L 704,512 z M 704,704L 320,704 L 320,768 l 384,0 L 704,704 z"  />
<glyph unicode="&#xe022;" d="M 640,881.142L 640,576 L 384,576 L 384,881.142 C 288.402,858.908, 192,807.952, 192,704l0-424 c0-154.636, 143.268-280, 320-280c 176.726,0, 320,125.364, 320,280
		L 832,704 C 832,807.952, 735.598,858.908, 640,881.142zM 576,892.134C 552.554,894.842, 530.642,896, 512,896c-18.64,0-40.552-1.158-64-3.866L 448,640 l 128,0 L 576,892.134 z"  />
<glyph unicode="&#xe023;" d="M 1024,128L 1024,896 L0,896 l0-768 l 448,0 l0-64 l-192,0 l0-64 l 512,0 l0,64 l-192,0 l0,64 L 1024,128 z M 128,768l 768,0 l0-512 L 128,256 L 128,768 z"  />
<glyph unicode="&#xe024;" d="M 896,256L 896,768 c0,35.2-28.8,64-64,64L 192,832 c-35.2,0-64-28.8-64-64l0-512 L0,256 l0-192 l 1024,0 l0,192 L 896,256 z M 640,128L 384,128 l0,64 l 256,0 L 640,128 z M 832,256L 192,256 
	L 192,767.886 c 0.034,0.040, 0.076,0.082, 0.114,0.114l 639.77,0 c 0.040-0.034, 0.082-0.076, 0.116-0.116L 832,256 z"  />
<glyph unicode="&#xe025;" d="M 672,960c-17.674,0-32-14.326-32-32l0-96 L 288,832 c-17.672,0-32-14.326-32-32l0-832 c0-17.672, 14.328-32, 32-32l 384,0 c 17.674,0, 32,14.328, 32,32L 704,928 
	C 704,945.674, 689.674,960, 672,960z M 384,0l-64,0 l0,64 l 64,0 L 384,0 z M 384,128l-64,0 l0,64 l 64,0 L 384,128 z M 384,256l-64,0 l0,64 l 64,0 L 384,256 z M 512,0l-64,0 l0,64 l 64,0 L 512,0 z
	 M 512,128l-64,0 l0,64 l 64,0 L 512,128 z M 512,256l-64,0 l0,64 l 64,0 L 512,256 z M 640,0l-64,0 l0,64 l 64,0 L 640,0 z M 640,128l-64,0 l0,64 l 64,0 L 640,128 z M 640,256l-64,0 l0,64 l 64,0 L 640,256 z
	 M 640,416c0-17.672-14.326-32-32-32L 352,384 c-17.672,0-32,14.328-32,32L 320,736 c0,17.674, 14.328,32, 32,32l 256,0 c 17.674,0, 32-14.326, 32-32L 640,416 z"  />
<glyph unicode="&#xe026;" d="M 704,960L 320,960 L 128,832l0-256 l 768,0 L 896,832 L 704,960z M 640,640l-64,0 l0,42.666 C 576,694.4, 566.4,704, 554.666,704l-85.332,0 
		c-11.732,0-21.334-9.6-21.334-21.334L 448,640 l-64,0 l0,106.666 C 384,758.4, 393.602,768, 405.334,768l 213.33,0 c 11.734,0, 21.336-9.6, 21.336-21.334
		L 640,640 zM 128,255.998l 768,0 L 896,512 L 128,512 L 128,255.998 z M 384,426.668c0,11.734, 9.602,21.332, 21.334,21.332l 213.33,0 
		c 11.734,0, 21.336-9.598, 21.336-21.332L 640,320 l-64,0 l0,42.668 c0,11.734-9.6,21.332-21.334,21.332l-85.332,0 
		c-11.732,0-21.334-9.598-21.334-21.332L 448,320 l-64,0 L 384,426.668 zM 128-64l 768,0 L 896,191.998 L 128,191.998 L 128-64 z M 384,106.668c0,11.734, 9.602,21.332, 21.334,21.332l 213.33,0 c 11.734,0, 21.336-9.598, 21.336-21.332
		L 640,0 l-64,0 l0,42.668 c0,11.734-9.6,21.332-21.334,21.332l-85.332,0 c-11.732,0-21.334-9.598-21.334-21.332L 448,0 l-64,0 L 384,106.668 z"  />
<glyph unicode="&#xe027;" d="M 704,768L 320,768 L0,384l0-160 l0-96 c0-35.346, 28.654-64, 64-64l 896,0 c 35.348,0, 64,28.654, 64,64l0,96 l0,160 L 704,768z M 768,384l-128-128L 384,256 
	l-128,128L 83.31,384 l 266.666,320l 324.048,0 l 266.666-320L 768,384 z"  />
<glyph unicode="&#xe028;" d="M 704,768L 320,768 L0,384l0-256 c0-35.346, 28.654-64, 64-64l 896,0 c 35.348,0, 64,28.654, 64,64L 1024,384 L 704,768z M 640,256L 384,256 l-64,64l 384,0 
		L 640,256z M 83.31,384l 266.666,320l 324.048,0 l 266.666-320L 83.31,384 zM 284.964,576L 739.036,576L 685.702,640L 338.296,640 	zM 178.298,448L 845.704,448L 792.37,512L 231.63,512 	z"  />
<glyph unicode="&#xe029;" d="M 64,832L 960,832L 960,704L 64,704zM 128,64l 768,0 L 896,640 L 128,640 L 128,64 z M 384,576l 256,0 l0-64 L 384,512 L 384,576 z"  />
<glyph unicode="&#xe02a;" d="M 832,896L 192,896 L0,704l0-672 c0-17.674, 14.326-32, 32-32l 960,0 c 17.672,0, 32,14.326, 32,32L 1024,704 L 832,896z M 512,128L 192,384l 192,0 l0,192 l 256,0 l0-192 l 192,0 
	L 512,128z M 154.51,768l 64,64l 586.978,0 l 64-64L 154.51,768 z"  />
<glyph unicode="&#xe02b;" d="M 832,896L 192,896 L0,704l0-672 c0-17.674, 14.326-32, 32-32l 960,0 c 17.672,0, 32,14.326, 32,32L 1024,704 L 832,896z M 640,320l0-192 L 384,128 l0,192 L 192,320 l 320,256
	l 320-256L 640,320 z M 154.51,768l 64,64l 586.976,0 l 64-64L 154.51,768 z"  />
<glyph unicode="&#xe02c;" d="M 512,384L 768,640L 576,640L 576,896L 448,896L 448,640L 256,640 	zM 744.726,488.728L 672.986,416.986L 933.066,320L 512,162.982L 90.934,320L 351.014,416.986L 279.272,488.728L0,384L0,128L 512-64L 1024,128L 1024,384 	z"  />
<glyph unicode="&#xe02d;" d="M 448,384L 576,384L 576,640L 768,640L 512,896L 256,640L 448,640 	zM 640,528L 640,429.288L 933.066,320L 512,162.982L 90.934,320L 384,429.288L 384,528L0,384L0,128L 512-64L 1024,128L 1024,384 	z"  />
<glyph unicode="&#xe02e;" d="M 512,960C 229.228,960,0,888.368,0,800l0-128 c0-88.366, 229.222-160, 512-160c 282.77,0, 512,71.634, 512,160L 1024,800 C 1024,888.368, 794.77,960, 512,960
		zM 510.386,448C 281.132,448, 87.88,495.086, 22.64,560C 7.41,544.846,0,528.722,0,512l0-128 c0-88.368, 229.222-160, 512-160
		c 282.77,0, 512,71.632, 512,160l0,128 c0,16.722-9.032,32.846-24.262,48C 934.5,495.086, 739.64,448, 510.386,448zM 510.386,160C 281.132,160, 87.88,207.088, 22.64,272C 7.41,256.848,0,240.722,0,224l0-128 c0-88.366, 229.222-160, 512-160
		c 282.77,0, 512,71.634, 512,160l0,128 c0,16.722-9.032,32.848-24.262,48C 934.5,207.088, 739.64,160, 510.386,160z"  />
<glyph unicode="&#xe02f;" d="M0,576L 1024,576L 1024,960 		zM 1024,0L 1024,384L0,384 		z"  />
<glyph unicode="&#xe030;" d="M 576,960L 576-64L 960-64 		zM0-64L 384-64L 384,960 		z"  />
<glyph unicode="&#xe031;" d="M 761.862-64C 875.588,142.032, 894.75,456.306, 448,445.824L 448,192 L 64,576L 448,960l0-248.372 
	C 982.962,725.57, 1042.57,239.414, 761.862-64z"  />
<glyph unicode="&#xe032;" d="M 576,711.628L 576,960 l 384-384L 576,192L 576,445.824 C 129.25,456.306, 148.412,142.032, 262.14-64
	C-18.572,239.414, 41.040,725.57, 576,711.628z"  />
<glyph unicode="&#xe033;" d="M 262.14,960C 148.412,753.968, 129.25,439.696, 576,450.176L 576,704 l 384-384L 576-64L 576,184.372 C 41.040,170.43-18.572,656.586, 262.14,960z"  />
<glyph unicode="&#xe034;" d="M 448,184.372L 448-64 L 64,320l 384,384l0-253.824 C 894.75,439.696, 875.588,753.968, 761.862,960
	C 1042.572,656.586, 982.962,170.43, 448,184.372z"  />
<glyph unicode="&#xe035;" d="M 858.812,960C 972.54,753.968, 1022.75,439.696, 576,450.176L 576,704 L 192,320l 384-384L 576,184.372 C 1024,184.372, 1139.524,656.586, 858.812,960
		zM 384,613.49L 384,704L0,320L 384-64L 384,26.51L 90.51,320 	z"  />
<glyph unicode="&#xe036;" d="M 511.986,943.926C 229.212,943.926, 0.002,770.848, 0.002,557.368c0-166.782, 139.902-308.938, 335.926-363.13
	c 2.876-16.208, 6.5-39.292, 6.5-53.574c0-67.25-25.734-131.036-71.576-188.59c 70.888,29.856, 170.95,125.796, 232.946,218.864
	c 2.734-0.032, 5.458-0.168, 8.19-0.168c 282.8,0, 512.014,173.078, 512.014,386.598C 1024.004,770.848, 794.79,943.926, 511.986,943.926z"  />
<glyph unicode="&#xe037;" d="M 1024,352c0,63.968-52.564,119.162-128.518,144.766c-7.636-116.364-102.286-216.458-238.522-267.87
		c 25.306-15.018, 55.302-26.144, 88.206-32.058c 23.768-55.538, 61.362-108.872, 107.466-143.86c-24.936,48.946-26.39,97.888-17.648,140.968
		C 942.076,205.946, 1024,272.136, 1024,352zM 832,512c0,141.384-171.922,256-384,256C 235.924,768, 64,653.384, 64,512c0-105.274, 95.328-195.69, 231.562-235.018
		c 21.32-52.728, 33.336-122.328-2.124-191.934c 53.89,40.896, 96.162,106.848, 118.292,172.096C 423.674,256.398, 435.766,256, 448,256
		C 660.078,256, 832,370.616, 832,512z"  />
<glyph unicode="&#xe038;" d="M 928,960L 96,960 C 43.2,960,0,916.8,0,864l0-640 c0-52.8, 43.2-96, 96-96l 224,0 l 192-192l 192,192l 224,0 c 52.8,0, 96,43.2, 96,96L 1024,864 
	C 1024,916.8, 980.802,960, 928,960z"  />
<glyph unicode="&#xe039;" d="M 928,704L 352,704 c-52.8,0-96-43.2-96-96l0-448 c0-52.8, 43.2-96, 96-96l 160,0 l 128-128l 128,128l 160,0 c 52.8,0, 96,43.2, 96,96L 1024,608 
		C 1024,660.8, 980.802,704, 928,704zM 768,864c0,52.8-43.2,96-96,96L 96,960 C 43.2,960,0,916.8,0,864l0-448 c0-52.8, 43.2-96, 96-96l 32,0 L 128,736 c0,53.020, 42.98,96, 96,96l 544,0 L 768,864 z"  />
<glyph unicode="&#xe03a;" d="M 960,832L 64,832 C 28.8,832,0,803.2,0,768l0-448 c0-35.2, 28.8-64, 64-64l 128,0 l0-192 l 144,192l 624,0 c 35.2,0, 64,28.8, 64,64L 1024,768 
	C 1024,803.2, 995.2,832, 960,832z M 320,448L 192,448 l0,128 l 128,0 L 320,448 z M 576,448l-128,0 l0,128 l 128,0 L 576,448 z M 832,448l-128,0 l0,128 l 128,0 L 832,448 z"  />
<glyph unicode="&#xe03b;" d="M 256,640A256,256 10260 1 1 768,640A256,256 10260 1 1 256,640zM 768,320L 256,320 C 114.616,320,0,205.382,0,64l0-64 l 8.066,0 l 1007.868,0 L 1024,0 l0,64 C 1024,205.382, 909.384,320, 768,320z"  />
<glyph unicode="&#xe03c;" d="M 622.826,257.264c-22.11,3.518-22.614,64.314-22.614,64.314s 64.968,64.316, 79.128,150.802
	c 38.090,0, 61.618,91.946, 23.522,124.296C 704.452,630.73, 751.822,864, 512,864c-239.822,0-192.45-233.27-190.864-267.324
	c-38.094-32.35-14.57-124.296, 23.522-124.296c 14.158-86.486, 79.128-150.802, 79.128-150.802s-0.504-60.796-22.614-64.314
	C 329.952,245.932, 64,128.63, 64,0l 448,0 l 448,0 C 960,128.63, 694.048,245.932, 622.826,257.264z"  />
<glyph unicode="&#xe03d;" d="M 320,768A192,192 8460 1 1 704,768A192,192 8460 1 1 320,768zM 768.078,512l-0.156,0 l-35.268,0 l-199.104-404.244L 608,480l-96,96l-96-96l 74.45-372.244L 291.348,512l-35.27,0 l-0.154,0 
		C 128,512, 128,426.014, 128,320l0-320 l 768,0 L 896,320 C 896,426.014, 896,512, 768.078,512z"  />
<glyph unicode="&#xe03e;" d="M 728.992,448C 866.746,535.334, 960,703.208, 960,896c0,21.676-1.192,43.034-3.478,64L 67.48,960 C 65.19,939.032, 64,917.674, 64,896
		c0-192.792, 93.254-360.666, 231.006-448C 157.254,360.666, 64,192.792, 64,0c0-21.676, 1.19-43.034, 3.478-64l 889.042,0 
		c 2.288,20.966, 3.478,42.324, 3.478,64C 960,192.792, 866.746,360.666, 728.992,448z M 160,0c0,186.912, 80.162,345.414, 224,397.708
		l0,100.586 l0,0 C 240.162,550.584, 160,709.086, 160,896l0,0 l 704,0 l0,0 c0-186.914-80.162-345.416-224-397.706l0-100.586 
		C 783.838,345.414, 864,186.912, 864,0L 160,0 zM 619.626,290.406c-71.654,40.644-75.608,93.368-75.626,125.366L 544,480 c0,31.994, 3.804,84.914, 75.744,125.664
		c 38.504,22.364, 71.808,56.348, 97.048,98.336L 307.21,704 c 25.266-42.032, 58.612-76.042, 97.166-98.406
		c 71.654-40.644, 75.606-93.366, 75.626-125.366L 480.002,416 c0-31.992-3.804-84.914-75.744-125.664c-72.622-42.18-126.738-125.684-143.090-226.336
		l 501.67,0 C 746.474,164.708, 692.308,248.248, 619.626,290.406z"  />
<glyph unicode="&#xe03f;" d="M 384,832A128,128 10260 1 1 640,832A128,128 10260 1 1 384,832zM 655.53,719.53A128,128 10260 1 1 911.53,719.53A128,128 10260 1 1 655.53,719.53zM 832,448A64,64 10260 1 1 960,448A64,64 10260 1 1 832,448zM 719.53,176.47A64,64 10260 1 1 847.53,176.47000000000003A64,64 10260 1 1 719.53,176.47000000000003zM 448.002,64A64,64 10260 1 1 576.002,64A64,64 10260 1 1 448.002,64zM 176.472,176.47A64,64 10260 1 1 304.472,176.47000000000003A64,64 10260 1 1 176.472,176.47000000000003zM 144.472,719.53A96,96 10260 1 1 336.472,719.53A96,96 10260 1 1 144.472,719.53zM 56,448A72,72 10260 1 1 200,448A72,72 10260 1 1 56,448z"  />
<glyph unicode="&#xe040;" d="M 1024,448c-1.278,66.862-15.784,133.516-42.576,194.462c-26.704,61-65.462,116.258-113.042,161.92
	c-47.552,45.696-103.944,81.82-164.984,105.652C 642.394,933.958, 576.802,945.386, 512,944c-64.81-1.282-129.332-15.374-188.334-41.356
	c-59.048-25.896-112.542-63.47-156.734-109.576c-44.224-46.082-79.16-100.708-102.186-159.798C 41.632,574.208, 30.618,510.75, 32,448
	c 1.286-62.76, 14.964-125.148, 40.134-182.206c 25.088-57.1, 61.476-108.828, 106.11-151.548c 44.61-42.754, 97.472-76.504, 154.614-98.72
	C 389.976-6.778, 451.304-17.376, 512-16c 60.708,1.29, 120.962,14.554, 176.076,38.914c 55.15,24.282, 105.116,59.48, 146.366,102.644
	c 41.282,43.14, 73.844,94.236, 95.254,149.43c 13.034,33.458, 21.88,68.4, 26.542,103.798c 1.246-0.072, 2.498-0.12, 3.762-0.12
	c 35.346,0, 64,28.652, 64,64c0,1.796-0.094,3.572-0.238,5.332L 1024,447.998 z M 922.306,278.052c-23.472-53.202-57.484-101.4-99.178-141.18
	c-41.67-39.81-91-71.186-144.244-91.79C 625.656,24.404, 568.594,14.63, 512,16c-56.604,1.298-112.596,13.736-163.82,36.474
	c-51.25,22.666-97.684,55.49-135.994,95.712c-38.338,40.198-68.528,87.764-88.322,139.058C 103.994,338.528, 94.636,393.458, 96,448
	c 1.302,54.552, 13.328,108.412, 35.254,157.69c 21.858,49.3, 53.498,93.97, 92.246,130.81c 38.73,36.868, 84.53,65.87, 133.874,84.856
	C 406.712,840.416, 459.51,849.362, 512,848c 52.5-1.306, 104.228-12.918, 151.562-34.034c 47.352-21.050, 90.256-51.502, 125.624-88.782
	c 35.396-37.258, 63.21-81.294, 81.39-128.688C 888.824,549.104, 897.358,498.438, 896,448l 0.238,0 c-0.144-1.76-0.238-3.536-0.238-5.332
	c0-33.012, 24.992-60.174, 57.086-63.624C 946.862,344.222, 936.556,310.226, 922.306,278.052z"  />
<glyph unicode="&#xe041;" d="M 992.262,88.604L 749.71,294.898c-25.074,22.566-51.89,32.926-73.552,31.926C 733.414,393.892, 768,480.902, 768,576
	C 768,788.078, 596.078,960, 384,960C 171.924,960,0,788.078,0,576c0-212.078, 171.922-384, 384-384c 95.098,0, 182.108,34.586, 249.176,91.844
	c-1-21.662, 9.36-48.478, 31.926-73.552l 206.294-242.552c 35.322-39.246, 93.022-42.554, 128.22-7.356S 1031.508,53.282, 992.262,88.604z
	 M 384,320c-141.384,0-256,114.616-256,256S 242.616,832, 384,832s 256-114.616, 256-256S 525.386,320, 384,320z"  />
<glyph unicode="&#xe042;" d="M 992.262,88.604L 749.71,294.898c-25.074,22.566-51.89,32.926-73.552,31.926C 733.414,393.892, 768,480.902, 768,576
		C 768,788.078, 596.078,960, 384,960C 171.924,960,0,788.078,0,576c0-212.078, 171.922-384, 384-384c 95.098,0, 182.108,34.586, 249.176,91.844
		c-1-21.662, 9.36-48.478, 31.926-73.552l 206.294-242.552c 35.322-39.246, 93.022-42.554, 128.22-7.356S 1031.508,53.282, 992.262,88.604
		z M 384,320c-141.384,0-256,114.616-256,256S 242.616,832, 384,832s 256-114.616, 256-256S 525.386,320, 384,320zM 448,768L 320,768L 320,640L 192,640L 192,512L 320,512L 320,384L 448,384L 448,512L 576,512L 576,640L 448,640 	z"  />
<glyph unicode="&#xe043;" d="M 992.262,88.604L 749.71,294.898c-25.074,22.566-51.89,32.926-73.552,31.926C 733.414,393.892, 768,480.902, 768,576
		C 768,788.078, 596.078,960, 384,960C 171.924,960,0,788.078,0,576c0-212.078, 171.922-384, 384-384c 95.098,0, 182.108,34.586, 249.176,91.844
		c-1-21.662, 9.36-48.478, 31.926-73.552l 206.294-242.552c 35.322-39.246, 93.022-42.554, 128.22-7.356S 1031.508,53.282, 992.262,88.604
		z M 384,320c-141.384,0-256,114.616-256,256S 242.616,832, 384,832s 256-114.616, 256-256S 525.386,320, 384,320zM 192,640L 576,640L 576,512L 192,512z"  />
<glyph unicode="&#xe044;" d="M 704,960c-176.73,0-320-143.268-320-320c0-20.026, 1.858-39.616, 5.376-58.624L0,192l0-192 c0-35.346, 28.654-64, 64-64
	l 64,0 l0,64 l 128,0 l0,128 l 128,0 l0,128 l 128,0 l 83.042,83.042C 629.052,326.726, 665.738,320, 704,320c 176.73,0, 320,143.268, 320,320S 880.73,960, 704,960z
	 M 799.874,639.874c-53.020,0-96,42.98-96,96s 42.98,96, 96,96s 96-42.98, 96-96S 852.894,639.874, 799.874,639.874z"  />
<glyph unicode="&#xe045;" d="M 1002.132,645.758l-101.106,101.104c-24.792,24.794-65.37,65.368-90.162,90.164l-101.106,101.104
	c-24.792,24.794-68.954,29.166-98.13,9.716L 335.19,763.554c-29.176-19.452-40.218-61.028-24.536-92.39l 70.486-140.974
	c 2.154-4.306, 4.646-8.896, 7.39-13.66L 32,160L0-64l 192,0 l0,64 l 128,0 l0,128 l 128,0 l0,128l 128,0 l0,71.186 c 6.396-3.812, 12.534-7.216, 18.192-10.044
	l 140.97-70.488c 31.366-15.682, 72.94-4.638, 92.39,24.538l 184.294,276.44C 1031.3,576.804, 1026.924,620.962, 1002.132,645.758z
	 M 150.628,105.374l-45.254,45.254l 311.572,311.57l 45.254-45.254L 150.628,105.374z M 917.020,536.236l-45.256-45.256
	c-12.446-12.444-32.808-12.444-45.254,0L 554.98,762.51c-12.446,12.444-12.446,32.81,0,45.254l 45.256,45.256
	c 12.446,12.444, 32.808,12.444, 45.254,0L 917.020,581.49C 929.466,569.046, 929.466,548.68, 917.020,536.236z"  />
<glyph unicode="&#xe046;" d="M 608,512l-32,0 l0,128 c0,141.384-114.616,256-256,256S 64,781.384, 64,640l0-128 L 32,512 c-17.6,0-32-14.4-32-32l0-448 c0-17.6, 14.4-32, 32-32l 576,0 
	c 17.6,0, 32,14.4, 32,32L 640,480 C 640,497.6, 625.6,512, 608,512z M 372.93,271.918L 384,128l-128,0 l 11.070,143.918
	C 241.122,289.102, 224,318.544, 224,352c0,53.020, 42.98,96, 96,96s 96-42.98, 96-96C 416,318.544, 398.878,289.102, 372.93,271.918z M 128,512
	l0,128 c0,106.040, 85.96,192, 192,192s 192-85.96, 192-192l0-128 L 128,512 z"  />
<glyph unicode="&#xe047;" d="M 768,896c-141.384,0-256-114.616-256-256l0-128 L 32,512 c-17.6,0-32-14.4-32-32l0-448 c0-17.6, 14.4-32, 32-32l 576,0 c 17.6,0, 32,14.4, 32,32L 640,480 
	c0,17.6-14.4,32-32,32l-32,0 l0,128 c0,106.040, 85.96,192, 192,192s 192-85.96, 192-192l0-128 l 64,0 l0,128 C 1024,781.384, 909.386,896, 768,896z M 372.93,271.918
	L 384,128l-128,0 l 11.070,143.918C 241.122,289.102, 224,318.544, 224,352c0,53.020, 42.98,96, 96,96s 96-42.98, 96-96
	C 416,318.544, 398.878,289.102, 372.93,271.918z"  />
<glyph unicode="&#xe048;" d="M 1015.764,823.766L 896,704l-128,128l 119.764,119.766C 870.114,957.114, 851.396,960, 832,960c-106.042,0-192-85.96-192-192
	c0-19.394, 2.884-38.114, 8.232-55.764L 247.764,311.766C 230.114,317.114, 211.396,320, 192,320c-106.042,0-192-85.96-192-192
	c0-19.394, 2.884-38.116, 8.234-55.764L 128,192l 128-128l-119.766-119.764C 153.886-61.112, 172.604-64, 192-64c 106.040,0, 192,85.962, 192,192
	c0,19.396-2.888,38.118-8.236,55.766l 400.468,400.47C 793.886,578.888, 812.604,576, 832,576c 106.040,0, 192,85.962, 192,192
	C 1024,787.396, 1021.112,806.116, 1015.764,823.766z"  />
<glyph unicode="&#xe049;" d="M 288,640L 160,640 c-17.6,0-32-14.4-32-32l0-64 c0-17.6, 14.4-32, 32-32l 128,0 c 17.6,0, 32,14.4, 32,32l0,64 C 320,625.6, 305.6,640, 288,640zM 192,832L 256,832L 256,672L 192,672zM 192,480L 256,480L 256,64L 192,64zM 544,384l-128,0 c-17.6,0-32-14.4-32-32l0-64 c0-17.6, 14.4-32, 32-32l 128,0 c 17.602,0, 32,14.4, 32,32l0,64 C 576,369.6, 561.602,384, 544,384zM 448.002,832L 512.002,832L 512.002,416L 448.002,416zM 448.002,224L 512.002,224L 512.002,64L 448.002,64zM 800,576l-128,0 c-17.598,0-32-14.4-32-32l0-64 c0-17.6, 14.402-32, 32-32l 128,0 c 17.602,0, 32,14.4, 32,32l0,64 C 832,561.6, 817.602,576, 800,576zM 704,832L 768,832L 768,608L 704,608zM 704,416L 768,416L 768,64L 704,64zM 880,960L 80,960 C 35.888,960,0,924.112,0,880l0-864 c0-44.112, 35.888-80, 80-80l 800,0 c 44.112,0, 80,35.888, 80,80L 960,880 
		C 960,924.112, 924.112,960, 880,960z M 896,16c0-8.8-7.2-16-16-16L 80,0 c-8.8,0-16,7.2-16,16L 64,880 c0,8.8, 7.2,16, 16,16l 800,0 c 8.8,0, 16-7.2, 16-16L 896,16 z"  />
<glyph unicode="&#xe04a;" d="M 933.79,349.75c-53.726,93.054-21.416,212.304, 72.152,266.488l-100.626,174.292c-28.75-16.854-62.176-26.518-97.846-26.518
	c-107.536,0-194.708,87.746-194.708,195.99L 411.504,960.002 c 0.266-33.41-8.074-67.282-25.958-98.252
	c-53.724-93.056-173.156-124.702-266.862-70.758L 18.060,616.7c 28.97-16.472, 54.050-40.588, 71.886-71.478
	c 53.638-92.908, 21.512-211.92-71.708-266.224l 100.626-174.292c 28.65,16.696, 61.916,26.254, 97.4,26.254
	c 107.196,0, 194.144-87.192, 194.7-194.958l 201.254,0 c-0.086,33.074, 8.272,66.57, 25.966,97.218
	c 53.636,92.906, 172.776,124.594, 266.414,71.012l 100.626,174.29C 976.444,294.988, 951.532,319.020, 933.79,349.75z M 512,240.668
	c-114.508,0-207.336,92.824-207.336,207.334c0,114.508, 92.826,207.334, 207.336,207.334c 114.508,0, 207.332-92.826, 207.332-207.334
	C 719.33,333.492, 626.508,240.668, 512,240.668z"  />
<glyph unicode="&#xe04b;" d="M 448,384L 448,832 C 200.576,832,0,631.424,0,384s 200.576-448, 448-448s 448,200.576, 448,448c0,72.034-17.028,140.084-47.236,200.382
		L 448,384zM 912.764,712.382C 839.212,859.198, 687.39,960, 512,960l0-448 L 912.764,712.382z"  />
<glyph unicode="&#xe04c;" d="M0,128L 1024,128L 1024,0L0,0zM 128,384L 256,384L 256,192L 128,192zM 320,640L 448,640L 448,192L 320,192zM 512,448L 640,448L 640,192L 512,192zM 704,832L 832,832L 832,192L 704,192z"  />
<glyph unicode="&#xe04d;" d="M 64,256L 192,256L 192-64L 64-64zM 320,384L 448,384L 448-64L 320-64zM 576,448L 704,448L 704-64L 576-64zM 832,640L 960,640L 960-64L 832-64zM 768,960L 832,896L 576,640L 448,768L 64,384L 128,320L 448,640L 576,512L 896,832L 960,768L 960,960 	z"  />
<glyph unicode="&#xe04e;" d="M 640,640l 192,128L 640,960l-120-280L 448,896l-192-128l 160-128L 64,640 l0-256 l 64,0 l0-448 l 768,0 L 896,384 l 64,0 L 960,640 L 640,640 z M 656.192,875.926l 100.466-100.466
	l-200.934-133.956L 656.192,875.926z M 422.336,821.202l 56.728-170.184l-141.82,113.456L 422.336,821.202z M 448,0L 192,0 L 192,416 l 256,0 L 448,0 z M 448,448
	L 128,448 l0,128 l 320,0 L 448,448 z M 832,0L 576,0 L 576,416 l 256,0 L 832,0 z M 896,448L 576,448 l0,128 l 320,0 L 896,448 z"  />
<glyph unicode="&#xe04f;" d="M 1024,896c-64,0-320,0-320,0l0-128 L 320,768 L 320,896 c0,0-256,0-320,0c0-320, 256-694.376, 448-752l0-80 c-64,0-128-32-128-64l 384,0 c0,32-64,64-128,64
	l0,80 C 768,201.624, 1024,576, 1024,896z M 767.7,733.546L 768,768L 768,832 l 188.454,0 c-5.574-51.678-17.71-106.256-36.28-162.99
	c-24.544-74.998-60.116-151.82-102.866-222.164c-41.118-67.652-87.792-127.718-134.976-173.704c-4.532-4.416-9.042-8.672-13.53-12.782
	C 753.638,430.476, 765.922,643.356, 767.7,733.546z M 341.668,273.144c-47.186,45.984-93.86,106.050-134.976,173.704
	c-42.75,70.344-78.322,147.166-102.866,222.164C 85.258,725.744, 73.12,780.322, 67.546,832L 256,832 l0-64 l 0.3-34.454
	c 1.778-90.192, 14.062-303.070, 98.896-473.184C 350.71,264.472, 346.198,268.728, 341.668,273.144z"  />
<glyph unicode="&#xe050;" d="M 128,832L0,704L 256,704 	zM 512,704L 384,832L 256,704 	zM 512.002,704L 768,704L 640,832 	zM 1024,704L 896,832L 768,704 	zM 640,832L 896,832L 832,896L 192,896L 128,832L 384,832 	zM 512,0L 224,576L 396.8,576L 512,0L 627.2,576L 800,576L 512,0L 1024,640L0,640 	z"  />
<glyph unicode="&#xe051;" d="M 847.11,517.624c 0.066,5.066, 0.098,10.152, 0.098,15.252c0,61.064-186.454,110.568-416.45,110.568
		c-229.994,0-416.446-49.504-416.446-110.568C 14.312,203.23, 147.092-64, 430.758-64c 166.826,0, 281.446,92.45, 347.576,235.636
		c 6.676-0.54, 13.398-0.914, 20.238-0.914c 116.594,0, 211.118,78.712, 211.118,175.808C 1009.688,429.714, 940.306,499.358, 847.11,517.624z
		 M 698.282,488.056c-73.378-17.304-168.39-26.834-267.524-26.834c-99.13,0-194.14,9.53-267.52,26.834
		c-71.644,16.896-100.752,36.272-108.504,44.822c 7.752,8.55, 36.862,27.922, 108.504,44.818c 73.376,17.306, 168.386,26.838, 267.52,26.838
		c 99.13,0, 194.142-9.534, 267.524-26.838c 71.644-16.896, 100.754-36.268, 108.508-44.818C 799.036,524.328, 769.926,504.954, 698.282,488.056
		z M 796.536,215.574c 25.074,67.73, 40.71,144.6, 47.2,227.028c 61-12.492, 96.84-57.23, 96.84-102.79
		C 940.57,281.046, 897.446,222.372, 796.536,215.574zM 511.378,707.844C 567.762,793.078, 412.754,884.704, 519.816,960c-89.056-5.886-104.322-60.376-81.87-102.922
		C 459.26,816.696, 511.298,788.536, 511.378,707.844zM 466.326,650.998c 25.292,71.416-118.538,129.030-39.108,211.612c-74.418-21.984-72.506-83.184-40.454-117.402
		C 409.902,720.5, 451.81,709.036, 466.326,650.998z"  />
<glyph unicode="&#xe052;" d="M 704,896L 384,576L 192,576 L0,320c0,0, 203.416,56.652, 322.066,30.084L0-64l 421.902,328.144C 480.74,129.49, 384-64, 384-64l 256,192
	l0,192 l 320,320L 1024,960L 704,896z"  />
<glyph unicode="&#xe053;" d="M 512,704C 229.23,704,0,474.772,0,192l 64,0 c0,116.418, 51.806,220.726, 133.622,291.148l 216.846-271.054
	c-1.33-6.49-2.028-13.208-2.028-20.094c0-54.984, 44.574-99.558, 99.558-99.558c 54.986,0, 99.558,44.574, 99.558,99.558
	s-44.572,99.562-99.558,99.562c-6.882,0-13.604-0.702-20.092-2.032L 223.958,503.894c 63.056,45.376, 140.426,72.108, 224.042,72.108
	c 212.076,0, 384-171.92, 384-383.998l 192,0 C 1024,474.772, 794.77,704, 512,704z"  />
<glyph unicode="&#xe054;" d="M 512,704C 229.23,704,0,474.772,0,192l 64,0 c0,212.078, 171.922,384, 384,384c 14.334,0, 28.482-0.792, 42.41-2.32l-33.172-298.528
	c-26.988-17.808-44.798-48.398-44.798-83.152c0-54.984, 44.576-99.558, 99.56-99.558S 611.56,137.016, 611.56,192
	c0,34.754-17.808,65.344-44.796,83.152l-32.344,291.084C 704.88,527.034, 832,374.364, 832,192l 192,0 C 1024,474.772, 794.77,704, 512,704z"  />
<glyph unicode="&#xe055;" d="M 832,192l 192,0 c0,282.772-229.23,512-512,512S0,474.772,0,192l 64,0 c0,212.078, 171.922,384, 384,384
	c 112.818,0, 214.272-48.652, 284.526-126.122l-200.434-160.348c-6.49,1.33-13.208,2.032-20.092,2.032
	c-54.986,0-99.56-44.578-99.56-99.562s 44.574-99.558, 99.56-99.558c 54.984,0, 99.556,44.574, 99.556,99.558
	c0,6.88-0.698,13.604-2.028,20.094l 156.332,195.414C 807.606,346.062, 832,271.882, 832,192z"  />
<glyph unicode="&#xe056;" d="M 512,960C 229.23,960,0,730.77,0,448s 229.23-512, 512-512s 512,229.23, 512,512S 794.77,960, 512,960z M 512,64
		c-212.078,0-384,171.922-384,384c0,212.078, 171.922,384, 384,384c 212.078,0, 384-171.922, 384-384C 896,235.922, 724.078,64, 512,64zM 448,704A64,64 8460 1 1 576,704A64,64 8460 1 1 448,704zM 640,640A64,64 8460 1 1 768,640A64,64 8460 1 1 640,640zM 256,640A64,64 8460 1 1 384,640A64,64 8460 1 1 256,640zM 448,256L 448,192L 576,192L 576,256L 512,576 	z"  />
<glyph unicode="&#xe057;" d="M 321.008-64C 103.756,58.442, 46.558,174.336, 79.26,332.622c 24.142,116.88, 113.294,211.972, 120.874,328.628
	c 33.768-61.452, 37.776-105.764, 41.55-169.98C 349.084,622.856, 460.462,798.956, 436.38,960c0,0, 267.616-128, 285.972-376.276
	c 24.082,51.174, 24.082,132.45,0,185.126c 72.244-52.678, 507.218-520.32-45.154-832.85c 103.852,202.21, 26.792,475.054-153.522,601.066
	c 12.042-54.184-3.010-195.664-82.782-284.464c 18.062,91.808-27.092,150.508-27.092,150.508s-14.804-83.11-72.244-167.066
	C 289.106,159.378, 252.762,78.008, 321.008-64z"  />
<glyph unicode="&#xe058;" d="M 956.29,155.518L 640,682.542L 640,896 l 32,0 c 17.6,0, 32,14.4, 32,32s-14.4,32-32,32L 352,960 c-17.6,0-32-14.4-32-32s 14.4-32, 32-32l 32,0 l0-213.458 
	L 67.712,155.518C-4.73,34.784, 51.2-64, 192-64l 640,0 C 972.8-64, 1028.73,34.784, 956.29,155.518z M 241.038,320L 448,664.938L 448,896 l 128,0 
	l0-231.062 L 782.964,320L 241.038,320 z"  />
<glyph unicode="&#xe059;" d="M 288,96c 17.674,0, 32,14.326, 32,32c0,0.006,0,0.014,0,0.020L 320,575.982 c0,0.006,0,0.012,0,0.020c0,17.672-14.328,32-32,32
		c-17.672,0-32-14.328-32-32l0,0 l0-448 C 256,110.326, 270.328,96, 288,96zM 480,96c 17.674,0, 32,14.326, 32,32c0,0.006,0,0.014,0,0.020L 512,575.982 c0,0.006,0,0.012,0,0.020c0,17.672-14.328,32-32,32
		c-17.672,0-32-14.328-32-32l0,0 l0-448 C 448,110.326, 462.328,96, 480,96zM 672,96c 17.674,0, 32,14.326, 32,32c0,0.006,0,0.014,0,0.020L 704,575.982 c0,0.006,0,0.012,0,0.020c0,17.672-14.326,32-32,32
		c-17.672,0-32-14.328-32-32l0,0 l0-448 C 640,110.326, 654.328,96, 672,96zM 703.974,830.92C 703.98,831.28, 704,831.638, 704,832L 704,896 c0,35.2-28.8,64-64,64L 320,960 c-35.2,0-64-28.8-64-64l0-64 
		c0-0.362, 0.022-0.72, 0.028-1.080L0,830.92 L0,768 l 64,0 l0-704 c0-70.4, 57.6-128, 128-128l 576,0 c 70.4,0, 128,57.6, 128,128L 896,768 l 64,0 L 960,830.92 L 703.974,830.92 z M 320,895.886
		c 0.034,0.040, 0.076,0.082, 0.114,0.114l 319.77,0 c 0.040-0.034, 0.082-0.076, 0.116-0.116l0-63.77 c-0.034-0.040-0.076-0.082-0.116-0.114
		L 320.114,832 c-0.040,0.034-0.082,0.076-0.114,0.114L 320,895.886 z M 832,64c0-16.954-6.696-32.986-18.856-45.144
		C 800.986,6.696, 784.954,0, 768,0L 192,0 c-16.954,0-32.986,6.696-45.146,18.856C 134.696,31.014, 128,47.046, 128,64L 128,768 l 704,0 L 832,64 z"  />
<glyph unicode="&#xe05a;" d="M 928,640L 704,640 L 704,768 c0,35.2-28.8,64-64,64L 384,832 c-35.204,0-64-28.8-64-64l0-128 L 96,640 c-52.8,0-96-43.2-96-96l0-448 c0-52.8, 43.2-96, 96-96
	l 832,0 c 52.796,0, 96,43.2, 96,96L 1024,544 C 1024,596.8, 980.802,640, 928,640z M 384,767.886c 0.032,0.040, 0.074,0.082, 0.116,0.114l 255.774,0 
	c 0.042-0.036, 0.080-0.076, 0.116-0.114L 640.006,640 L 384,640 L 384,767.886 z"  />
<glyph unicode="&#xe05b;" d="M 960,704L 704,704 L 704,768 c0,35.2-28.8,64-64,64L 384,832 c-35.204,0-64-28.8-64-64l0-64 L 64,704 C 28.8,704,0,675.2,0,640l0-512 
	c0-35.202, 28.796-64, 64-64l 896,0 c 35.2,0, 64,28.798, 64,64L 1024,640 C 1024,675.2, 995.2,704, 960,704z M 384,767.884
	c 0.034,0.040, 0.074,0.082, 0.114,0.116l 255.772,0 c 0.042-0.034, 0.082-0.076, 0.118-0.116L 640.004,704 L 384,704 L 384,767.884 z M 960,448l-128,0 l0-96 
	c0-17.602-14.4-32-32-32l-64,0 c-17.604,0-32,14.398-32,32l0,96 L 320,448 l0-96 c0-17.602-14.4-32-32-32l-64,0 c-17.602,0-32,14.398-32,32l0,96 L 64,448 l0,64 l 896,0 
	L 960,448 z"  />
<glyph unicode="&#xe05c;" d="M 872.608,640L 704,896L 320,896 L 151.39,640L0,640 l0-448 l 128,0 l0-160 c0-17.6, 14.398-32, 32-32l 128,0 c 17.6,0, 32,14.4, 32,32l0,160 l 384,0 l0-160 
	c0-17.6, 14.396-32, 32-32l 128,0 c 17.6,0, 32,14.4, 32,32l0,160 l 128,0 L 1024,640 L 872.608,640 z M 354.48,832l 315.038,0 l 126.456-192L 228.024,640 L 354.48,832z M 256,293.49
	c-49.988,0-90.512,40.522-90.512,90.51s 40.526,90.508, 90.512,90.508c 49.984,0, 90.508-40.522, 90.508-90.508
	C 346.51,334.012, 305.986,293.49, 256,293.49z M 768,293.49c-49.986,0-90.514,40.522-90.514,90.51s 40.526,90.508, 90.514,90.508
	c 49.982,0, 90.51-40.522, 90.51-90.508C 858.51,334.012, 817.982,293.49, 768,293.49z"  />
<glyph unicode="&#xe05d;" d="M 960,448c0,0-32.558,384-64,448S 640,960, 512,960S 159.44,960, 128,896S 64,448, 64,448l0-384 l 128,0 l0-64 c0-35.346, 28.654-64, 64-64
	s 64,28.654, 64,64l0,64 l 384,0 l0-64 c0-35.346, 28.654-64, 64-64c 35.348,0, 64,28.654, 64,64l0,64 l 128,0 L 960,448 z M 320,896l 384,0 l0-64 L 320,832 L 320,896 z
	 M 210.116,558.46c 12.166,106.658, 21.694,163.576, 27.688,192.928c 17.172,4.004, 46.392,8.958, 93.734,12.29C 392.99,768, 458.98,768, 512,768
	s 119.010,0, 180.462-4.322c 47.342-3.33, 76.562-8.284, 93.734-12.29c 5.992-29.352, 15.522-86.272, 27.688-192.93
	c 1.806-15.834, 3.518-31.436, 5.118-46.46L 204.998,511.998 C 206.598,527.024, 208.31,542.626, 210.116,558.46z M 256,227.2
	c-51.252,0-92.8,41.546-92.8,92.8c0,51.252, 41.546,92.8, 92.8,92.8s 92.8-41.548, 92.8-92.8C 348.8,268.746, 307.254,227.2, 256,227.2z
	 M 768,227.2c-51.254,0-92.798,41.546-92.798,92.8c0,51.252, 41.544,92.8, 92.798,92.8s 92.8-41.548, 92.8-92.8
	C 860.802,268.746, 819.254,227.2, 768,227.2z"  />
<glyph unicode="&#xe05e;" d="M 512,896L 64,704L 512,512L 960,704 	zM 64,128L 448-32L 448,416L 64,576 	zM 576-32L 960,128L 960,576L 576,416 	z"  />
<glyph unicode="&#xe05f;" d="M 480,896L0,704l0-448 l 480-256l 480,256L 960,704 L 480,896z M 448,89.6L 64,294.4L 64,605.866 l 384-204.8L 448,89.6 z M 82.996,668.268L 480,827.070
	l 397.004-158.802L 480,456.534L 82.996,668.268z M 896,294.4L 512,89.6L 512,401.066 l 384,204.8L 896,294.4 z"  />
<glyph unicode="&#xe060;" d="M 958.33,703.75L 789.88,703.75 c-43.43,0.066-86.696,3.006-44.504,77.458c 42.276,74.6, 72.118,179.042-97.604,179.042 c-169.714,0-139.87-104.442-97.594-179.042c 42.192-74.452-1.076-77.388-44.51-77.458l-183.876,0 c-36.12,0-65.67-29.556-65.67-65.668 l0-204.378 c0-43.512, 11.808-87.026-62.786-44.756C 118.744,431.222,0,461.062,0,291.344c0-169.708, 118.74-139.87, 193.34-97.596 c 74.594,42.274, 62.786-1.24, 62.786-44.76l0-147.566 c0-36.124, 29.554-65.67, 65.67-65.67l 183.622,0 c 43.52,0, 87.034,17.412, 44.764,92.008 c-42.274,74.59-72.122,179.038, 97.594,179.038c 169.716,0, 139.876-104.442, 97.6-179.038c-42.27-74.598, 1.246-92.010, 44.762-92.010l 168.192,0 c 36.124,0, 65.674,29.554, 65.674,65.67L 1024.004,638.084 C 1024.004,674.198, 994.454,703.75, 958.33,703.75z"  />
<glyph unicode="&#xe061;" d="M0,704l0-512 l 320,0 l 192,192l 192-192l 320,0 L 1024,704 L0,704 z M 448,448l-128-128L 64,320 L 64,576 l 384,0 L 448,448 z M 960,320L 704,320 l-128,128l0,128 l 384,0 L 960,320 z"  />
<glyph unicode="&#xe062;" d="M 704,896l0-96 l 160-288L 160,512 l 160,288L 320,896 L0,512l0-512 l 320,0 l 192,192l 192-192l 320,0 L 1024,512 L 704,896z M 448,256l-128-128L 64,128 L 64,384 l 384,0 L 448,256 z M 960,128L 704,128 
	l-128,128l0,128 l 384,0 L 960,128 z"  />
<glyph unicode="&#xe063;" d="M 960,768L 960,832L 512,704L 64,832L 64,768L 384,640L 384,384L 256-64L 320-64L 512,384L 704-64L 768-64L 640,384L 640,640 	zM 416,864A96,96 10260 1 1 608,864A96,96 10260 1 1 416,864z"  />
<glyph unicode="&#xe064;" d="M 320,32c-123.712,0-224,100.29-224,224c0,87.696, 50.4,163.606, 123.806,200.38l-42.94,85.876C 72.002,489.72,0,381.278,0,256
		c0-176.732, 143.268-320, 320-320s 320,143.268, 320,320l-96,0 C 544,132.29, 443.712,32, 320,32zM 960,256L 896,192L 677.486,410.51L 448,410.51L 448,512L 704,512L 704,576L 448,576L 448,704L 320,704L 320,320L 640,320L 896,64L 1024,192 	zM 288,864A96,96 10260 1 1 480,864A96,96 10260 1 1 288,864z"  />
<glyph unicode="&#xe065;" d="M 512,960C 229.688,960,0,730.324,0,447.998C0,165.676, 229.688-64, 512-64c 282.31,0, 512,229.676, 512,511.998
		C 1024,730.324, 794.312,960, 512,960z M 512,49.778c-219.578,0-398.22,178.646-398.22,398.22c0,219.58, 178.644,398.224, 398.22,398.224
		s 398.22-178.644, 398.22-398.224C 910.226,228.424, 731.576,49.778, 512,49.778zM 512,732.446c-156.844,0-284.448-127.602-284.448-284.448c0-156.842, 127.602-284.448, 284.448-284.448
		s 284.446,127.606, 284.446,284.448C 796.446,604.844, 668.846,732.446, 512,732.446z M 512,277.332
		c-94.116,0-170.668,76.554-170.668,170.666c0,94.116, 76.552,170.67, 170.668,170.67c 94.112,0, 170.67-76.554, 170.67-170.67
		C 682.67,353.886, 606.112,277.332, 512,277.332zM 448,448A64,64 10260 1 1 576,448A64,64 10260 1 1 448,448z"  />
<glyph unicode="&#xe066;" d="M 512,960C 229.23,960,0,730.77,0,448s 229.23-512, 512-512s 512,229.23, 512,512S 794.77,960, 512,960z M 783.53,176.47
	C 726.32,119.262, 654.234,82.348, 576,69.296L 576,256 l-128,0 l0-186.704 c-78.234,13.050-150.32,49.964-207.53,107.174
	C 183.264,233.68, 146.348,305.766, 133.298,384L 320,384 l0,128 L 133.298,512 c 13.050,78.234, 49.966,150.32, 107.174,207.53
	C 297.68,776.738, 369.766,813.652, 448,826.704L 448,640 l 128,0 L 576,826.704 c 78.234-13.050, 150.32-49.966, 207.53-107.174
	c 57.208-57.208, 94.124-129.294, 107.174-207.53L 704,512 l0-128 l 186.704,0 C 877.652,305.766, 840.738,233.68, 783.53,176.47z"  />
<glyph unicode="&#xe067;" d="M 384,960L0,448L 384,448L 128-64L 1024,576L 512,576L 896,960 z"  />
<glyph unicode="&#xe068;" d="M 704,960L 128,384L 480,384L 320-64L 896,512L 544,512 z"  />
<glyph unicode="&#xe069;" d="M0,256L 320,768L 640,448L 1024,704L 704,128L 384,448 z"  />
<glyph unicode="&#xe06a;" d="M 768,832l-128,0 L 640,896 c0,35.2-28.8,64-64,64l-128,0 c-35.204,0-64-28.8-64-64l0-64 l-128,0 l0-128 l 512,0 L 768,832 z M 576,832l-128,0 L 448,895.886 
		c 0.034,0.038, 0.072,0.078, 0.114,0.114l 127.768,0 c 0.042-0.036, 0.082-0.076, 0.118-0.114L 576,832 L 576,832zM 864,832l-64,0 l0-64 l 32,0 l0-768 L 192,0 L 192,768 l 32,0 L 224,832 L 160,832 c-17.602,0-32-14.4-32-32l0-832 c0-17.6, 14.398-32, 32-32l 704,0 c 17.6,0, 32,14.4, 32,32L 896,800 
		C 896,817.6, 881.6,832, 864,832z"  />
<glyph unicode="&#xe06b;" d="M 768,832l-128,0 L 640,896 c0,35.2-28.8,64-64,64l-128,0 c-35.204,0-64-28.8-64-64l0-64 l-128,0 l0-128 l 512,0 L 768,832 z M 576,832l-128,0 L 448,895.886 
		c 0.034,0.038, 0.072,0.078, 0.114,0.114l 127.768,0 c 0.042-0.036, 0.082-0.076, 0.118-0.114L 576,832 L 576,832zM 864,832l-64,0 l0-64 l 32,0 l0-768 L 192,0 L 192,768 l 32,0 L 224,832 L 160,832 c-17.602,0-32-14.4-32-32l0-832 c0-17.6, 14.398-32, 32-32l 704,0 c 17.6,0, 32,14.4, 32,32L 896,800 
		C 896,817.6, 881.6,832, 864,832zM 256,576L 768,576L 768,512L 256,512zM 256,384L 768,384L 768,320L 256,320zM 256,192L 768,192L 768,128L 256,128z"  />
<glyph unicode="&#xe06c;" d="M0,896L 640,896L 640,768L0,768zM0,640L 576,640L 576,512L0,512zM0,384L 448,384L 448,256L0,256zM0,128L 320,128L 320,0L0,0zM 832,960l-128,0 l0-713.118 c-20.020,5.898-41.556,9.118-64,9.118c-106.040,0-192-71.634-192-160s 85.96-160, 192-160s 192,71.634, 192,160L 832,768 l 192-64
		L 1024,832 L 832,960z"  />
<glyph unicode="&#xe06d;" d="M0,960L 448,960L 448,512L0,512zM 576,960L 1024,960L 1024,512L 576,512zM0,384L 448,384L 448-64L0-64zM 576,384L 1024,384L 1024-64L 576-64z"  />
<glyph unicode="&#xe06e;" d="M 960,256l-103.482,0 L 617.092,655.044C 631.072,666.808, 640,684.41, 640,704L 640,832 c0,35.2-28.8,64-64,64l-128,0 c-35.2,0-64-28.8-64-64
	l0-128 c0-19.59, 8.928-37.192, 22.91-48.956L 167.482,256L 64,256 c-35.2,0-64-28.8-64-64l0-128 c0-35.2, 28.8-64, 64-64l 128,0 c 35.2,0, 64,28.8, 64,64l0,128 
	c0,19.59-8.928,37.192-22.91,48.956L 472.52,640l 78.964,0 l 239.428-399.044C 776.93,229.192, 768,211.59, 768,192l0-128 
	c0-35.2, 28.8-64, 64-64l 128,0 c 35.2,0, 64,28.8, 64,64l0,128 C 1024,227.2, 995.2,256, 960,256z"  />
<glyph unicode="&#xe06f;" d="M 1024,302.458c0,82.090-56.678,150.9-132.996,169.48C 887.762,600.638, 782.546,704, 653.142,704
	c-75.792,0-143.266-35.494-186.854-90.732c-24.442,31.598-62.69,51.96-105.708,51.96c-73.81,0-133.642-59.874-133.642-133.722
	c0-6.436, 0.48-12.76, 1.364-18.954c-11.222,2.024-22.766,3.138-34.57,3.138C 86.734,515.692,0,428.904,0,321.848
	C0,214.786, 86.734,128, 193.73,128l 656.262,0 l0,0.012 C 946.13,128.196, 1024,206.224, 1024,302.458z"  />
<glyph unicode="&#xe070;" d="M 891.004,599.94C 887.762,728.638, 782.546,832, 653.142,832c-75.792,0-143.266-35.494-186.854-90.732
	c-24.442,31.598-62.69,51.96-105.708,51.96c-73.81,0-133.642-59.874-133.642-133.722c0-6.436, 0.48-12.76, 1.364-18.954
	c-11.222,2.024-22.766,3.138-34.57,3.138C 86.734,643.692,0,556.904,0,449.848C0,342.786, 86.734,256, 193.73,256l 99.76,0 L 512,37.49
	L 730.51,256l 119.482,0 l0,0.012 C 946.13,256.196, 1024,334.224, 1024,430.458C 1024,512.548, 967.322,581.358, 891.004,599.94z M 512,128l-192,192
	l 128,0 l0,192 l 128,0 l0-192 l 128,0 L 512,128z"  />
<glyph unicode="&#xe071;" d="M 896,256L 896,128L 128,128L 128,256L0,256L0,0L 1024,0L 1024,256 	zM 768,576L 576,576L 576,896L 448,896L 448,576L 256,576L 512,192 	z"  />
<glyph unicode="&#xe072;" d="M 892.268,573.51C 894.712,584.62, 896,596.158, 896,608c0,88.366-71.634,160-160,160c-14.222,0-28.014-1.868-41.132-5.352
	C 670.070,840, 597.578,896, 512,896c-87.348,0-161.054-58.336-184.326-138.17C 304.932,764.452, 280.882,768, 256,768C 114.616,768,0,653.384,0,512
	c0-141.388, 114.616-256, 256-256l 128,0 l0-192 l 256,0 l0,192 l 224,0 c 88.366,0, 160,71.632, 160,160C 1024,494.72, 967.146,560.162, 892.268,573.51z M 576,320l0-192 
	l-128,0 l0,192 l-160,0 l 224,224l 224-224L 576,320 z"  />
<glyph unicode="&#xe073;" d="M 896,256L 896,128L 128,128L 128,256L0,256L0,0L 1024,0L 1024,256 	zM 256,512L 448,512L 448,192L 576,192L 576,512L 768,512L 512,896 	z"  />
<glyph unicode="&#xe074;" d="M 320,256c 17.6-17.6, 47.274-16.726, 65.942,1.942L 702.060,574.058C 720.728,592.726, 721.6,622.4, 704,640
		s-47.274,16.726-65.942-1.942L 321.942,321.942C 303.274,303.274, 302.4,273.6, 320,256zM 476.888,284.888c 4.56-9.050, 6.99-19.16, 6.99-29.696c0-17.616-6.744-34.060-18.992-46.308l-163.382-163.382
		c-12.248-12.248-28.694-18.992-46.308-18.992s-34.060,6.744-46.308,18.992l-99.382,99.382c-12.248,12.248-18.992,28.694-18.992,46.308
		s 6.744,34.060, 18.992,46.308l 163.382,163.382c 12.248,12.248, 28.694,18.994, 46.308,18.994c 10.536,0, 20.644-2.43, 29.696-6.99l 65.338,65.338
		c-27.87,21.41-61.44,32.16-95.034,32.16c-39.986,0-79.972-15.166-110.308-45.502l-163.382-163.382
		c-60.67-60.67-60.67-159.948,0-220.618l 99.382-99.382C 175.222-48.832, 215.208-64, 255.194-64
		c 39.988,0, 79.974,15.168, 110.308,45.502l 163.382,163.382c 55.82,55.82, 60.238,144.298, 13.344,205.344L 476.888,284.888zM 978.498,815.116l-99.382,99.382C 848.782,944.834, 808.796,960, 768.808,960c-39.986,0-79.972-15.166-110.308-45.502l-163.382-163.382
		c-55.82-55.82-60.238-144.298-13.342-205.342l 65.338,65.34c-4.558,9.050-6.988,19.16-6.988,29.694c0,17.616, 6.744,34.060, 18.992,46.308
		l 163.382,163.382c 12.248,12.248, 28.694,18.994, 46.308,18.994s 34.060-6.746, 46.308-18.994l 99.382-99.382
		c 12.248-12.248, 18.992-28.694, 18.992-46.308s-6.744-34.060-18.992-46.308l-163.382-163.382c-12.248-12.248-28.694-18.992-46.308-18.992
		c-10.536,0-20.644,2.43-29.696,6.99l-65.338-65.338c 27.872-21.41, 61.44-32.16, 95.034-32.16c 39.988,0, 79.974,15.168, 110.308,45.502
		l 163.382,163.382C 1039.168,655.168, 1039.168,754.446, 978.498,815.116z"  />
<glyph unicode="&#xe075;" d="M 476.888,284.886c 4.56-9.048, 6.99-19.158, 6.99-29.696c0-17.616-6.744-34.058-18.992-46.308l-163.38-163.38
		c-12.248-12.248-28.696-18.992-46.308-18.992s-34.060,6.744-46.308,18.992l-99.38,99.38c-12.248,12.25-18.992,28.696-18.992,46.308
		s 6.744,34.060, 18.992,46.308l 163.38,163.382c 12.248,12.246, 28.696,18.992, 46.308,18.992c 10.538,0, 20.644-2.43, 29.696-6.988l 65.338,65.336
		c-27.87,21.41-61.44,32.16-95.034,32.16c-39.986,0-79.972-15.166-110.308-45.502l-163.38-163.382
		c-60.67-60.67-60.67-159.95,0-220.618l 99.38-99.382c 30.334-30.332, 70.32-45.5, 110.306-45.5
		c 39.988,0, 79.974,15.168, 110.308,45.502l 163.38,163.38c 55.82,55.82, 60.238,144.298, 13.344,205.346L 476.888,284.886zM 978.496,815.116l-99.38,99.382C 848.782,944.834, 808.796,960, 768.808,960c-39.986,0-79.97-15.166-110.306-45.502l-163.382-163.382
		c-55.82-55.82-60.238-144.298-13.342-205.342l 65.338,65.34c-4.558,9.050-6.988,19.16-6.988,29.694c0,17.616, 6.744,34.060, 18.992,46.308
		l 163.382,163.382c 12.246,12.248, 28.694,18.994, 46.306,18.994c 17.616,0, 34.060-6.746, 46.308-18.994l 99.38-99.382
		c 12.248-12.248, 18.992-28.694, 18.992-46.308c0-17.614-6.744-34.060-18.992-46.308l-163.38-163.382c-12.248-12.248-28.694-18.992-46.308-18.992
		c-10.536,0-20.644,2.43-29.696,6.99l-65.338-65.338c 27.872-21.41, 61.44-32.16, 95.034-32.16c 39.988,0, 79.974,15.168, 110.308,45.504
		l 163.38,163.38C 1039.168,655.168, 1039.168,754.446, 978.496,815.116zM 233.368,681.376L 41.374,873.37L 86.63,918.626L 278.624,726.632zM 384,960L 448,960L 448,768L 384,768zM0,576L 192,576L 192,512L0,512zM 790.632,214.624L 982.628,22.628L 937.372-22.628L 745.376,169.368zM 576,128L 640,128L 640-64L 576-64zM 832,384L 1024,384L 1024,320L 832,320z"  />
<glyph unicode="&#xe076;" d="M 864.622,953.724L 607.38,902.276C 590.122,898.824, 576,910.4, 576,928S 561.88,957.176, 544.622,953.724L 256,896L 256,960 L 128,960 l0-1024 l 128,0 L 256,448 
	l 288.622,57.724C 561.88,509.176, 576,497.6, 576,480s 14.122-29.176, 31.378-25.724l 257.242,51.45C 881.88,509.176, 896,526.4, 896,544L 896,928 
	C 896,945.6, 881.88,957.176, 864.622,953.724z"  />
<glyph unicode="&#xe077;" d="M 508.118,837.954C 411.762,952.454, 338.738,960, 192,960l0-512 c 256.534,128, 285.272-16.67, 447.012-2.046
		C 798.468,460.394, 934.062,583.128, 1024,704C 769.288,645.094, 641.080,679.954, 508.118,837.954zM0,960L 128,960L 128-64L0-64z"  />
<glyph unicode="&#xe078;" d="M 697.832,632.952l-64.952,64.922L 308.070,373.132c-53.814-53.792-53.814-141.048,0-194.844
	c 53.804-53.792, 141.060-53.792, 194.874,0l 389.772,389.708c 89.714,89.662, 89.714,235.062,0,324.726
	c-89.666,89.704-235.112,89.704-324.782,0L 158.67,483.576l 0.034-0.032c-0.29-0.304-0.612-0.576-0.876-0.846
	c-125.102-125.096-125.102-327.856,0-452.906c 125.054-125.056, 327.868-125.056, 452.988,0c 0.274,0.274, 0.516,0.568, 0.82,0.876l 0.032-0.034
	l 279.332,279.292l-64.986,64.92L 546.7,95.584l-0.016,0 c-0.296-0.268-0.564-0.57-0.846-0.844
	c-89.074-89.058-233.98-89.058-323.076,0c-89.062,89.042-89.062,233.922,0,322.978c 0.304,0.304, 0.604,0.582, 0.888,0.846l-0.046,0.060
	l 409.28,409.166c 53.712,53.738, 141.144,53.738, 194.886,0c 53.712-53.734, 53.712-141.148,0-194.84L 437.998,243.25
	c-17.936-17.922-47.054-17.922-64.972,0c-17.894,17.886-17.894,47.032,0,64.92L 697.832,632.952z"  />
<glyph unicode="&#xe079;" d="M 512,768C 288.682,768, 95.118,637.958,0,448c 95.118-189.958, 288.682-320, 512-320c 223.314,0, 416.878,130.042, 512,320
	C 928.884,637.958, 735.314,768, 512,768z M 512,355.622c-51.020,0-92.378,41.364-92.378,92.378s 41.362,92.378, 92.378,92.378
	s 92.376-41.362, 92.376-92.378C 604.38,396.98, 563.018,355.622, 512,355.622z M 242.342,270.722
	C 172.608,315.204, 114.462,376.074, 72.7,448c 41.76,71.926, 99.906,132.794, 169.642,177.278c 39.62,25.27, 82.364,44.812, 127.042,58.086
	c 22.458,6.668, 45.368,11.724, 68.562,15.172C 329.762,666.604, 250.8,566.532, 250.8,448c0-118.532, 78.962-218.606, 187.15-250.536
	c-23.2,3.446-46.104,8.5-68.564,15.172C 324.706,225.91, 281.962,245.454, 242.342,270.722z M 781.654,270.722
	c-39.622-25.274-82.366-44.812-127.042-58.086c-22.458-6.672-45.37-11.724-68.56-15.172C 694.234,229.394, 773.2,329.468, 773.2,448
	c0,118.532-78.962,218.606-187.148,250.536c 23.196-3.448, 46.102-8.504, 68.56-15.172c 44.682-13.274, 87.426-32.816, 127.042-58.086
	c 69.736-44.48, 127.88-105.352, 169.644-177.278C 909.538,376.074, 851.394,315.208, 781.654,270.722z"  />
<glyph unicode="&#xe07a;" d="M 192,960L 192-64L 512,256L 832-64L 832,960 z"  />
<glyph unicode="&#xe07b;" d="M 192,960l0-1024 l 320,320l 320-320L 832,960 L 192,960 z M 768,90.51l-256,256l-256-256L 256,896 l 512,0 L 768,90.51 z"  />
<glyph unicode="&#xe07c;" d="M 512,740.874l 60-184.658l 14.37-44.222l 46.498,0 l 194.162,0 l-157.082-114.126l-37.618-27.332l 14.37-44.222l 59.998-184.658
	l-157.078,114.124L 512,283.108l-37.618-27.33l-157.080-114.124l 60,184.658l 14.368,44.222l-37.618,27.332l-157.082,114.126l 194.164,0 l 46.5,0 
	L 452,556.214L 512,740.874 M 512,947.982l-120.866-371.99L0,575.992 l 316.434-229.904L 195.566-25.902L 512,204l 316.432-229.9l-120.866,371.988
	L 1024,575.992L 632.868,575.992 L 512,947.982L 512,947.982z"  />
<glyph unicode="&#xe07d;" d="M 1024,575.992L 632.868,575.992 L 512,947.982l-120.866-371.99L0,575.992 l 316.434-229.904L 195.566-25.902L 512,204l 316.432-229.9l-120.866,371.988
	L 1024,575.992z M 512,283.108L 512,740.874 l 74.37-228.88l 240.66,0 l-194.7-141.458l 74.368-228.88L 512,283.108z"  />
<glyph unicode="&#xe07e;" d="M 1024,575.992L 632.868,575.992L 512,947.982L 391.134,575.992L0,575.992L 316.434,346.088L 195.566-25.902L 512,204L 828.432-25.9L 707.566,346.088 z"  />
<glyph unicode="&#xe07f;" d="M 944.332,816.334c-106.222,106.222-278.444,106.222-384.666,0c-19.458-19.458-35.338-41.138-47.666-64.214
	c-12.33,23.076-28.208,44.756-47.666,64.214c-106.222,106.222-278.444,106.222-384.666,0c-106.222-106.222-106.222-278.444,0-384.666
	L 512,0l 432.332,431.666C 1050.554,537.888, 1050.554,710.11, 944.332,816.334z"  />
<glyph unicode="&#xe080;" d="M 752,832c 55.558,0, 107.792-21.636, 147.078-60.92c 81.098-81.1, 81.098-213.058, 0.034-294.122L 512,90.44L 124.92,476.92
	c-81.098,81.1-81.098,213.058,0,294.158C 164.208,810.364, 216.44,832, 272,832c 55.558,0, 107.792-21.636, 147.076-60.918
	c 14.576-14.578, 26.848-31.104, 36.474-49.122L 512,616.306l 56.448,105.652c 9.626,18.018, 21.898,34.544, 36.472,49.12
	C 644.208,810.364, 696.442,832, 752,832 M 752,896c-69.612,0-139.222-26.554-192.334-79.666c-19.458-19.458-35.338-41.138-47.666-64.214
	c-12.33,23.076-28.208,44.756-47.666,64.214C 411.222,869.444, 341.61,896, 272,896c-69.612,0-139.222-26.554-192.334-79.666
	c-106.222-106.222-106.222-278.444,0-384.666L 512,0l 432.332,431.666c 106.222,106.222, 106.222,278.444,0,384.666
	C 891.22,869.444, 821.61,896, 752,896L 752,896z"  />
<glyph unicode="&#xe081;" d="M 892.282,234.814c 1.704,20.24, 43.902,47.966, 43.868,68.24c-0.098,21.286-36.964,56.91-34.172,78.014
	c 2.208,16.74, 33.11,41.586, 34.118,58.49c 1.796,30.706-39.704,90.8-68.238,102.348c-45.286,18.336-275.41,9.766-275.41,9.766
	c-22.492,39.306, 40.070,136.402, 57.278,178.324c 25.262,61.438, 21.008,142.932-10.942,184.798C 599.758,965.96, 528.126,969.36, 526.65,946.476
	c-10.672-166.020-42.458-212.106-85.010-244.91c-25.572-19.726-47.908-36.994-59.708-67.056
	c-72.522-184.708-131.040-244.074-159.056-250.508L 128,384.002 l0-397.77 l 291.442-39.002c0,0, 266.91-25.264, 350.964,0
	c 26.446,7.932, 72.078,47.636, 82.864,73.112c 6.148,14.63-2.394,49.244, 4.886,63.354c 10.742,20.916, 56.102,47.118, 56.054,75.542
	C 914.164,179.508, 890.552,214.596, 892.282,234.814z"  />
<glyph unicode="&#xe082;" d="M 936.102,456.466c-1,16.894-31.918,41.708-34.126,58.474c-2.796,21.088, 34.094,56.738, 34.152,78
	c 0.046,20.274-42.144,48.004-43.86,68.254c-1.722,20.208, 21.906,55.288, 21.938,75.562c 0.050,28.432-45.316,54.628-56.066,75.542
	c-7.262,14.118, 1.286,48.736-4.886,63.362c-10.77,25.478-56.406,65.19-82.828,73.112c-84.070,25.258-350.966,0-350.966,0L 128,909.78
	L 128,512 l 94.89,0 c 27.986-15.564, 86.522-64.564, 159.052-249.272c 11.8-30.068, 34.146-48.576, 59.708-68.286
	c 42.564-32.812, 74.314-78.884, 84.986-244.918c 1.486-22.886, 73.114-19.48, 112.128,31.674c 31.95,41.862, 36.218,123.364, 10.968,184.804
	c-17.208,41.924-79.79,139.022-57.286,178.342c0,0, 230.132-8.57, 275.402,9.742C 896.384,365.634, 937.884,425.746, 936.102,456.466z"  />
<glyph unicode="&#xe083;" d="M 512,960C 229.23,960,0,730.77,0,448s 229.23-512, 512-512s 512,229.23, 512,512S 794.77,960, 512,960z M 576,384l0-320 l-128,0 L 448,384 L 128,384 l0,128 
	l 320,0 L 448,832 l 128,0 l0-320 l 320,0 l0-128 L 576,384 z"  />
<glyph unicode="&#xe084;" d="M 512,960C 229.23,960,0,730.77,0,448s 229.23-512, 512-512s 512,229.23, 512,512S 794.77,960, 512,960z M 128,384l0,128 l 768,0 l0-128 L 128,384 z"  />
<glyph unicode="&#xe085;" d="M 512,960C 229.23,960,0,730.77,0,448s 229.23-512, 512-512s 512,229.23, 512,512S 794.77,960, 512,960z M 512,64
	c-53.020,0-96,42.98-96,96s 42.98,96, 96,96s 96-42.98, 96-96S 565.020,64, 512,64z M 736.128,605.942
	c-4.99-16.892-11.912-32.918-20.812-48.014c-8.89-15.134-19.58-29.464-32.038-42.952c-12.458-13.542-26.122-26.534-41.082-38.972
	c-16.726-13.872-30.16-26.152-40.292-36.836c-10.114-10.656-16.976-19.934-20.538-27.734c-6.678-14.348-11.706-48.726-5.382-91.434l-127.918,0 
	c-1.050,75.876, 10.116,113.002, 23.376,140.516c 13.528,27.768, 38.754,57.108, 75.776,88.062c 16.022,13.134, 28.472,24.816, 37.35,34.958
	c 8.898,10.134, 15.682,19.198, 20.286,27.208c 4.614,8, 7.458,15.468, 8.542,22.422c 1.060,6.922, 1.586,14.112, 1.586,21.598
	c0,13.876-2.398,26.674-7.206,38.41c-4.792,11.766-11.648,21.876-20.528,30.394c-8.914,8.562-19.392,15.234-31.488,20.042
	c-12.096,4.798-25.608,7.22-40.558,7.22c-58.328,0-93.91-40.742-106.73-122.208l-128.054,0 c 3.196,34.88, 11.12,66.422, 23.752,94.706
	c 12.626,28.3, 29.152,52.302, 49.626,72.056c 20.462,19.752, 44.292,34.94, 71.508,45.592c 27.2,10.68, 56.818,16.024, 88.838,16.024
	c 34.16,0, 65.284-4.882, 93.392-14.664c 28.114-9.798, 52.208-23.418, 72.292-40.84c 20.114-17.426, 35.744-38.238, 46.964-62.422
	c 11.182-24.208, 16.822-50.522, 16.822-78.968C 743.608,640.908, 741.092,622.848, 736.128,605.942z"  />
<glyph unicode="&#xe086;" d="M 512,960C 229.23,960,0,730.77,0,448s 229.226-512, 512-512c 282.77,0, 512,229.23, 512,512S 794.77,960, 512,960z M 512,0
			C 264.576,0, 64,200.576, 64,448S 264.576,896, 512,896s 448-200.576, 448-448S 759.424,0, 512,0zM 448,256L 576,256L 576,128L 448,128zM 704,704L 320,704 l0-128 l 320,0 l0-64 l-192-128l0-64 l 128,0 l 192,128l0,192 C 768,675.346, 739.346,704, 704,704z"  />
<glyph unicode="&#xe087;" d="M0,448c0-282.77, 229.23-512, 512-512c 282.772,0, 512,229.23, 512,512S 794.772,960, 512,960C 229.23,960,0,730.77,0,448z M 896,448
	c0-73.236-20.512-141.68-56.088-199.912L 312.090,775.912C 370.32,811.49, 438.764,832, 512,832C 724.076,832, 896,660.078, 896,448z M 128,448
	c0,73.236, 20.512,141.678, 56.090,199.912l 527.822-527.824C 653.678,84.51, 585.236,64, 512,64C 299.924,64, 128,235.922, 128,448z"  />
<glyph unicode="&#xe088;" d="M 512,960C 229.23,960,0,730.77,0,448s 229.23-512, 512-512s 512,229.23, 512,512S 794.77,960, 512,960z M 785.794,273.768
	c 13.688-13.688, 13.688-36.088,0-49.78l-49.782-49.782c-13.692-13.688-36.092-13.688-49.78,0L 512,348.44l-174.23-174.232
	c-13.69-13.688-36.092-13.688-49.78,0l-49.782,49.782c-13.69,13.692-13.69,36.092,0,49.78L 412.44,448l-174.232,174.23
	c-13.69,13.69-13.69,36.092,0,49.78l 49.782,49.782c 13.688,13.69, 36.090,13.69, 49.78,0L 512,547.56l 174.232,174.232
	c 13.688,13.69, 36.088,13.69, 49.78,0l 49.782-49.782c 13.688-13.688, 13.688-36.090,0-49.78L 611.562,448L 785.794,273.768z"  />
<glyph unicode="&#xe089;" d="M 1014.662,137.34c-0.004,0.004-0.008,0.008-0.012,0.010L 704.006,448l 310.644,310.65c 0.004,0.004, 0.008,0.006, 0.012,0.010
		c 3.344,3.346, 5.762,7.254, 7.312,11.416c 4.246,11.376, 1.824,24.682-7.324,33.83L 867.904,950.652c-9.148,9.146-22.45,11.566-33.828,7.32
		c-4.16-1.55-8.070-3.968-11.418-7.31c0-0.004-0.004-0.006-0.008-0.010L 512.002,640L 201.354,950.65
		c-0.004,0.004-0.006,0.006-0.010,0.010c-3.346,3.342-7.254,5.76-11.414,7.31c-11.38,4.248-24.682,1.826-33.83-7.32L 9.352,803.902
		c-9.148-9.148-11.568-22.452-7.322-33.828c 1.552-4.16, 3.97-8.072, 7.312-11.416c 0.004-0.002, 0.006-0.006, 0.010-0.010L 320.002,448
		L 9.352,137.348c-0.002-0.004-0.006-0.006-0.008-0.010c-3.342-3.346-5.76-7.254-7.314-11.414c-4.248-11.376-1.826-24.682, 7.322-33.83
		l 146.748-146.746c 9.15-9.148, 22.452-11.568, 33.83-7.322c 4.16,1.552, 8.070,3.97, 11.416,7.312c 0.002,0.004, 0.006,0.006, 0.010,0.010
		l 310.648,310.65l 310.648-310.65c 0.004-0.002, 0.008-0.006, 0.012-0.008c 3.348-3.344, 7.254-5.762, 11.414-7.314
		c 11.378-4.246, 24.684-1.826, 33.828,7.322l 146.746,146.748c 9.148,9.148, 11.57,22.454, 7.324,33.83
		C 1020.424,130.086, 1018.006,133.994, 1014.662,137.34z"  />
<glyph unicode="&#xe08a;" d="M 864,864L 384,384L 160,608L0,448L 384,64L 1024,704 z"  />
<glyph unicode="&#xe08b;" d="M0,544l0-192 c0-17.672, 14.328-32, 32-32l 960,0 c 17.672,0, 32,14.328, 32,32l0,192 c0,17.672-14.328,32-32,32L 32,576 C 14.328,576,0,561.672,0,544z"  />
<glyph unicode="&#xe08c;" d="M 992,576L 640,576 L 640,928 c0,17.672-14.328,32-32,32l-192,0 c-17.672,0-32-14.328-32-32l0-352 L 32,576 c-17.672,0-32-14.328-32-32l0-192 
	c0-17.672, 14.328-32, 32-32l 352,0 l0-352 c0-17.672, 14.328-32, 32-32l 192,0 c 17.672,0, 32,14.328, 32,32L 640,320 l 352,0 c 17.672,0, 32,14.328, 32,32l0,192 
	C 1024,561.672, 1009.672,576, 992,576z"  />
<glyph unicode="&#xe08d;" d="M 896,896L 192,896 c-35.2,0-64-28.8-64-64l0-256 l 128,0 L 256,768 l 576,0 l0-704 L 256,64 l0,192 L 128,256 l0-256 c0-35.2, 28.798-64, 64-64l 704,0 c 35.2,0, 64,28.8, 64,64L 960,832 
		C 960,867.2, 931.2,896, 896,896zM 384,128L 672,416L 384,704L 384,512L0,512L0,320L 384,320 	z"  />
<glyph unicode="&#xe08e;" d="M 992,416L 704,704L 704,512L 320,512L 320,320L 704,320L 704,128 	zM 832,768L 832,832 c0,35.2-28.8,64-64,64L 64,896 C 28.8,896,0,867.2,0,832l0-832 c0-35.2, 28.798-64, 64-64l 704,0 c 35.2,0, 64,28.8, 64,64l0,64 L 128,64 L 128,768 
		L 832,768 z"  />
<glyph unicode="&#xe08f;" d="M 320,320L 320,512L 512,512L 256,768L0,512L 192,512L 192,192L 576,192L 448,320 	zM 832,384L 832,704L 448,704L 576,576L 704,576L 704,384L 512,384L 768,128L 1024,384 	z"  />
<glyph unicode="&#xe090;" d="M 64,896L 64,256L 256,64L 256,512L 768,0L 960,192L 448,704L 896,704L 704,896 z"  />
<glyph unicode="&#xe091;" d="M 64,512L 64,256L 384,576L 384-64L 640-64L 640,576L 960,256L 960,512L 512,960 z"  />
<glyph unicode="&#xe092;" d="M 960,896L 320,896L 128,704L 576,704L 64,192L 256,0L 768,512L 768,64L 960,256 z"  />
<glyph unicode="&#xe093;" d="M 576,896L 320,896L 640,576L0,576L0,320L 640,320L 320,0L 576,0L 1024,448 z"  />
<glyph unicode="&#xe094;" d="M 960,0L 960,640L 768,832L 768,384L 256,896L 64,704L 576,192L 128.002,192L 320.002,0 z"  />
<glyph unicode="&#xe095;" d="M 960,384L 960,640L 640,320L 640,960L 384,960L 384.002,319.998L 64,640L 64,383.998L 512.002-64 z"  />
<glyph unicode="&#xe096;" d="M 64,0L 704,0L 896,192L 448,192L 960,704L 768,896L 256,384L 256,832L 64,640 z"  />
<glyph unicode="&#xe097;" d="M 448,0L 704,0L 384,320L 1024,320L 1024,576L 384,576L 704,896L 448,896L0,448 z"  />
<glyph unicode="&#xe098;" d="M 512,960L 64-64L 512,128L 960-64 z"  />
<glyph unicode="&#xe099;" d="M 1024,448L0,896L 192,448L0,0 z"  />
<glyph unicode="&#xe09a;" d="M 512-64L 960,960L 512,768L 64,960 z"  />
<glyph unicode="&#xe09b;" d="M0,448L 1024,0L 832,448L 1024,896 z"  />
<glyph unicode="&#xe09c;" d="M 256,512L 256,384.002L 448,576L 448,192.002L 576,192L 576.002,576L 768.002,384L 768.002,512L 512.002,768 	zM0,448c0-282.768, 229.23-511.998, 512-512c 282.77,0, 512,229.23, 512,512c 0.002,282.77-229.228,512-512,512
		S0,730.77,0,448z M 960.002,448C 960,200.576, 759.424,0, 512,0C 264.576,0.002, 64,200.578, 64,448c0,247.424, 200.576,448, 448,448
		S 960.002,695.424, 960.002,448z"  />
<glyph unicode="&#xe09d;" d="M 576,704L 448,704L 640,512L 256,512L 256,384L 640,384L 448,192L 576,192L 832,448 	zM 512,960C 229.23,960,0,730.77,0,448s 229.23-512, 512-512s 512,229.23, 512,512S 794.77,960, 512,960z M 512,0
		C 264.576,0, 64,200.576, 64,448S 264.576,896, 512,896s 448-200.576, 448-448S 759.424,0, 512,0z"  />
<glyph unicode="&#xe09e;" d="M 768,384L 768,512L 576,320L 576,704L 448,704L 448,320L 256,512L 256,384L 512,128 	zM 1024,448C 1024,730.77, 794.77,960, 512,960S0,730.77,0,448s 229.23-512, 512-512S 1024,165.23, 1024,448z M 64,448
		C 64,695.424, 264.576,896, 512,896s 448-200.576, 448-448S 759.424,0, 512,0S 64,200.576, 64,448z"  />
<glyph unicode="&#xe09f;" d="M 448,192L 576,192L 384,384L 768,384L 768,512L 384,512L 576,704L 448,704L 192,448 	zM 512-64c 282.77,0, 512,229.23, 512,512S 794.77,960, 512,960C 229.23,960,0,730.77,0,448C0,165.23, 229.23-64, 512-64z
		 M 512,896c 247.424,0, 448-200.578, 448-448S 759.424,0, 512,0S 64,200.576, 64,448C 64,695.424, 264.576,896, 512,896z"  />
<glyph unicode="&#xe0a0;" d="M 768,512L 512,768L 256,512 	zM 256,320L 512,64L 768,320 	z"  />
<glyph unicode="&#xe0a1;" d="M 1024,896L 832,896L 832,448L 352,448L 512,608L 384,736L0,352L 384-32L 512,96L 352,256L 1024,256 z"  />
<glyph unicode="&#xe0a2;" d="M 320,768L0,448l 320-320l 704,0 L 1024,768 L 320,768 z M 960,192L 346.51,192 l-256,256l 256,256L 960,704 L 960,192 zM 576,256L 704,384L 832,256L 896,320L 768,448L 896,576L 832,640L 704,512L 576,640L 512,576L 640,448L 512,320 	z"  />
<glyph unicode="&#xe0a3;" d="M 320,768L0,448l 320-320l 704,0 L 1024,768 L 320,768 z M 938.24,291.84l-78.080-78.080L 704,369.92l-156.16-156.16l-78.080,78.080L 625.92,448
	l-156.16,156.16l 78.080,78.080L 704,526.080l 156.16,156.16l 78.080-78.080L 782.080,448L 938.24,291.84z"  />
<glyph unicode="&#xe0a4;" d="M 704,384L 960,640L 704,896L 704,704L0,704L0,576L 704,576 	zM 320,320L 320,512L 64,256L 320,0L 320,192L 1024,192L 1024,320 	z"  />
<glyph unicode="&#xe0a5;" d="M 704,768L0,768L0,640L 704,640L 704,448L 960,704L 704,960 	zM 960,960L 960,704L 960,448L 1024,448L 1024,960 	zM 320,448L 64,192L 320-64L 320,128L 1024,128L 1024,256L 320,256 	zM0,448L0-64L 64-64L 64,192L 64,448 	z"  />
<glyph unicode="&#xe0a6;" d="M0,960l0-1024 l 1024,0 L 1024,960 L0,960 z M 960,0L 64,0 L 64,896 l 896,0 L 960,0 zM 768,704L 448,384L 256,576L 128,448L 448,128L 896,576 	z"  />
<glyph unicode="&#xe0a7;" d="M0,960l0-1024 l 1024,0 L 1024,960 L0,960 z M 960,0L 64,0 L 64,896 l 896,0 L 960,0 z"  />
<glyph unicode="&#xe0a8;" d="M0,960l0-1024 l 1024,0 L 1024,960 L0,960 z M 960,0L 64,0 L 64,896 l 896,0 L 960,0 zM 256,704L 768,704L 768,192L 256,192z"  />
<glyph unicode="&#xe0a9;" d="M 512,960C 229.23,960,0,730.77,0,448s 229.23-512, 512-512s 512,229.23, 512,512S 794.77,960, 512,960z M 512,64
		c-212.078,0-384,171.922-384,384c0,212.078, 171.922,384, 384,384c 212.078,0, 384-171.922, 384-384C 896,235.922, 724.078,64, 512,64zM 320,448A192,192 10260 1 1 704,448A192,192 10260 1 1 320,448z"  />
<glyph unicode="&#xe0aa;" d="M 512,960C 229.23,960,0,730.77,0,448s 229.23-512, 512-512s 512,229.23, 512,512S 794.77,960, 512,960z M 512,64
	c-212.078,0-384,171.922-384,384c0,212.078, 171.922,384, 384,384c 212.078,0, 384-171.922, 384-384C 896,235.922, 724.078,64, 512,64z"  />
<glyph unicode="&#xe0ab;" d="M 799.596,943.792C 709.070,943.792, 650.976,960, 557.748,960C 256.464,960, 115.956,788.416, 115.956,614.128
	c0-102.678, 48.64-136.458, 144.564-136.458c-6.758,14.864-18.914,31.080-18.914,104.034c0,204.010, 77.006,263.458, 175.636,267.51
	c0,0-80.918-793.374-315.778-888.542L 101.464-64 l 168.718,0 l 147.876,0 l 108.026,512l 197.844,0 L 768,576L 553.092,576 l 51.944,246.19
	c 59.446-12.156, 117.542-24.316, 167.532-24.316c 62.148,0, 118.894,18.914, 149.968,162.126C 884.71,947.84, 844.174,943.792, 799.596,943.792z"  />
<glyph unicode="&#xe0ac;" d="M0,768L 1024,768L 1024,704L0,704zM0,640L 704,640L 704,576L0,576zM0,512L 1024,512L 1024,448L0,448zM0,384L 704,384L 704,320L0,320zM0,256L 1024,256L 1024,192L0,192zM0,128L 704,128L 704,64L0,64z"  />
<glyph unicode="&#xe0ad;" d="M0,768L 1024,768L 1024,704L0,704zM 192,640L 832,640L 832,576L 192,576zM 192,384L 832,384L 832,320L 192,320zM 192,128L 832,128L 832,64L 192,64zM0,512L 1024,512L 1024,448L0,448zM0,256L 1024,256L 1024,192L0,192z"  />
<glyph unicode="&#xe0ae;" d="M0,768L 1024,768L 1024,704L0,704zM 320,640L 1024,640L 1024,576L 320,576zM0,512L 1024,512L 1024,448L0,448zM 320,384L 1024,384L 1024,320L 320,320zM0,256L 1024,256L 1024,192L0,192zM 320,128L 1024,128L 1024,64L 320,64z"  />
<glyph unicode="&#xe0af;" d="M0,640L 1024,640L 1024,576L0,576zM0,384L 1024,384L 1024,320L0,320zM0,128L 1024,128L 1024,64L0,64zM0,768L 1024,768L 1024,704L0,704zM0,512L 1024,512L 1024,448L0,448zM0,256L 1024,256L 1024,192L0,192z"  />
<glyph unicode="&#xe0b0;" d="M 512,960c-141.384,0-256-114.616-256-256s 114.616-256, 256-256l0-512 l 128,0 L 640,832 l 128,0 l0-896 l 128,0 L 896,832 l 128,0 L 1024,960 L 512,960 zM0,256L 256,512L0,768 	z"  />
<glyph unicode="&#xe0b1;" d="M 256,960C 114.616,960,0,845.384,0,704s 114.616-256, 256-256l0-512 l 128,0 L 384,832 l 128,0 l0-896 l 128,0 L 640,832 l 128,0 L 768,960 L 256,960 zM 1024,768L 768,512L 1024,256 	z"  />
<glyph unicode="&#xe0b2;" d="M 256,320c0,0, 58.824,192, 384,192l0-192 l 384,256L 640,832l0-192 C 384,640, 256,480.328, 256,320zM 704,192L 128,192 L 128,576 l 125.876,0 c 10.094,11.918, 20.912,23.334, 32.488,34.18c 43.964,41.19, 96.562,72.652, 156.114,93.82L0,704 l0-640 l 832,0 
		L 832,332.624 l-128-85.334L 704,192 z"  />
<glyph unicode="&#xe0b3;" d="M 640,896L 768,768L 320,320L 384,256L 832,704L 960,576L 960,896 	zM 704,128L 192,128L 192,640L 448,640L 576,768L 64,768L 64,0L 832,0L 832,512L 704,384 	z"  />
<glyph unicode="&#xe0b4;" d="M 192,896l0-768 l 768,0 L 960,896 L 192,896 z M 896,192L 256,192 L 256,832 l 640,0 L 896,192 zM 128,64L 128,704L 64,768L 64,0L 832,0L 768,64 	zM 429.254,274.746L 621.254,466.746L 768,320L 768,704L 384,704L 530.746,557.254L 338.746,365.254 	z"  />
<glyph unicode="&#xe0b5;" d="M 320,704L 64,448L 320,192L 448,192L 192,448L 448,704 	zM 704,704L 576,704L 832,448L 576,192L 704,192L 960,448 	z"  />
<glyph unicode="&#xe0b6;" d="M 128,448L 384,704L 256,704L0,448L 256,192L 384,192 	zM 768,704L 640,704L 896,448L 640,192L 768,192L 1024,448 	zM 544,832L 384,64L 480,64L 640,832 	z"  />
<glyph unicode="&#xe0b7;" d="M 781.256,640L 512,911.106l0-385.85 L 310.628,726.628l-45.256-45.256L 498.744,448L 265.372,214.626l 45.256-45.254L 512,370.744
	l0-385.848 L 781.256,256l-192,192L 781.256,640z M 576,755.638L 690.744,640L 576,525.256L 576,755.638 z M 690.744,256L 576,140.362L 576,370.744 
	L 690.744,256z"  />
<glyph unicode="&#xe0b8;" d="M 864,256c-45.16,0-85.92-18.738-115.012-48.83L 317.984,422.672C 319.298,430.924, 320,439.378, 320,448
	s-0.702,17.076-2.016,25.326l 431.004,215.502C 778.080,658.738, 818.84,640, 864,640c 88.366,0, 160,71.634, 160,160S 952.366,960, 864,960
	s-160-71.634-160-160c0-8.622, 0.704-17.076, 2.016-25.326L 275.012,559.17C 245.92,589.26, 205.16,608, 160,608c-88.366,0-160-71.636-160-160
	c0-88.368, 71.634-160, 160-160c 45.16,0, 85.92,18.738, 115.012,48.828l 431.004-215.502C 704.704,113.076, 704,104.622, 704,96
	c0-88.368, 71.634-160, 160-160s 160,71.632, 160,160C 1024,184.364, 952.366,256, 864,256z"  />
<glyph unicode="&#xe0b9;" d="M 384,448A128,128 10260 1 1 640,448A128,128 10260 1 1 384,448zM 512,704c 70.692,0, 134.692-28.654, 181.020-74.98l 90.51,90.51C 714.040,789.020, 618.040,832, 512,832
		c-167.192,0-309.4-106.862-362.12-256L0,576 l0-128 l 256,0 C 256,589.384, 370.616,704, 512,704zM 768,448c0-141.384-114.616-256-256-256c-70.692,0-134.692,28.654-181.020,74.98l-90.51-90.51
		C 309.962,106.98, 405.962,64, 512,64c 167.192,0, 309.4,106.862, 362.12,256L 1024,320 l0,128 L 768,448 z"  />
<glyph unicode="&#xe0ba;" d="M 853.342,960L 170.686,960 C 76.812,960,0,883.19,0,789.31l0-682.622 C0,12.75, 76.812-64, 170.686-64l 682.656,0 
	C 947.218-64, 1024,12.75, 1024,106.69L 1024,789.31 C 1024,883.19, 947.218,960, 853.342,960z M 182.628,73.374l-77.256,77.254l 256,256
	l 29.256-29.254L 182.628,73.374z M 153.372,761.372l 29.256,29.256L 512,525.254L 841.374,790.628l 29.254-29.256L 512,338.746L 153.372,761.372z
	 M 841.374,73.374l-208,304l 29.254,29.254l 256-256L 841.374,73.374z"  />
<glyph unicode="&#xe0bb;" d="M 789.534,896c0,0-200.956,0-267.94,0c-120.122,0-233.17-91.006-233.17-196.422c0-107.726, 81.882-194.666, 204.088-194.666
	c 8.498,0, 16.756,0.17, 24.84,0.752c-7.928-15.186-13.6-32.288-13.6-50.042c0-29.938, 16.104-54.21, 36.468-74.024
	c-15.386,0-30.242-0.448-46.452-0.448c-148.782,0.002-263.3-94.76-263.3-193.022c0-96.778, 125.542-157.312, 274.334-157.312
	c 169.624,0, 263.306,96.244, 263.306,193.028c0,77.602-22.896,124.072-93.686,174.134c-24.216,17.142-70.532,58.836-70.532,83.344
	c0,28.72, 8.196,42.868, 51.428,76.646c 44.312,34.624, 75.674,83.302, 75.674,139.916c0,67.406-30.022,133.098-86.374,154.772l 84.956,0 
	L 789.534,896z M 695.948,240.542c 2.126-8.972, 3.284-18.208, 3.284-27.628c0-78.2-50.39-139.31-194.974-139.31
	c-102.842,0-177.116,65.104-177.116,143.3c0,76.642, 92.126,140.444, 194.964,139.332c 24-0.254, 46.368-4.116, 66.668-10.69
	C 644.602,306.718, 684.65,284.786, 695.948,240.542z M 531.286,532.224c-69.038,2.064-134.636,77.226-146.552,167.86
	c-11.916,90.666, 34.37,160.042, 103.388,157.99C 557.13,856, 622.758,783.26, 634.68,692.616
	C 646.586,601.956, 600.29,530.158, 531.286,532.224z"  />
<glyph unicode="&#xe0bc;" d="M 559.066,896c0,0-200.956,0-267.94,0C 171.006,896, 57.956,804.994, 57.956,699.578c0-107.726, 81.882-194.666, 204.088-194.666
		c 8.498,0, 16.756,0.17, 24.842,0.752c-7.93-15.186-13.602-32.288-13.602-50.042c0-29.938, 16.104-54.21, 36.468-74.024
		c-15.386,0-30.242-0.448-46.452-0.448C 114.518,381.152,0,286.392,0,188.13c0-96.778, 125.542-157.314, 274.334-157.314
		c 169.624,0, 263.306,96.244, 263.306,193.028c0,77.6-22.896,124.072-93.686,174.134c-24.216,17.144-70.53,58.836-70.53,83.344
		c0,28.72, 8.196,42.868, 51.428,76.646c 44.312,34.624, 75.672,83.302, 75.672,139.916c0,67.406-30.020,133.098-86.372,154.772l 84.954,0 
		L 559.066,896z M 465.48,240.542c 2.126-8.972, 3.284-18.206, 3.284-27.628c0-78.2-50.392-139.31-194.974-139.31
		c-102.842,0-177.116,65.104-177.116,143.3c0,76.642, 92.126,140.444, 194.964,139.332c 24-0.254, 46.368-4.116, 66.67-10.69
		C 414.134,306.72, 454.184,284.784, 465.48,240.542z M 300.818,532.224c-69.038,2.064-134.636,77.226-146.552,167.86
		c-11.916,90.666, 34.37,160.042, 103.388,157.99c 69.010-2.074, 134.638-74.814, 146.558-165.458
		C 416.118,601.956, 369.822,530.158, 300.818,532.224zM 832,704L 832,896L 768,896L 768,704L 576,704L 576,640L 768,640L 768,448L 832,448L 832,640L 1024,640L 1024,704 	z"  />
<glyph unicode="&#xe0bd;" d="M 459.33,300.168L 288.676,4.5L 853.33,4.5L 1024,300.168 	zM 975.612,384L 682.678,891.5L 341.33,891.5L 634.286,384 	zM 292.836,807.486L0,300.168L 170.676,4.5L 463.508,511.824 	z"  />
<glyph unicode="&#xe0be;" d="M 575.87-64L 384-64 L 384,448 l-128,0 l0,176.45 l 128,0.058l-0.208,103.952C 383.792,872.412, 422.826,960, 592.39,960l 141.176,0 l0-176.484 l-88.23,0 
	c-66.032,0-69.206-24.656-69.206-70.684l-0.262-88.324l 158.69,0 l-18.704-176.45L 576,448L 575.87-64z"  />
<glyph unicode="&#xe0bf;" d="M 854,960L 170,960 C 76.5,960,0,883.5,0,790l0-684 c0-93.5, 76.5-170, 170-170l 684,0 c 93.5,0, 170,76.5, 170,170L 1024,790 C 1024,883.5, 947.5,960, 854,960z
	 M 327.8,512l 368.4,0 c 6.988-20.058, 10.8-41.59, 10.8-64c0-107.524-87.476-195-195-195c-107.524,0-195,87.476-195,195
	C 317,470.41, 320.812,491.942, 327.8,512z M 896,511.95L 896,256 l0-128 c0-35.2-28.8-64-64-64L 192,64 c-35.2,0-64,28.8-64,64l0,128 L 128,511.95 L 128,512 
	l 100.108,0 c-4.642-20.602-7.108-42.016-7.108-64c0-160.458, 130.542-291, 291-291c 160.458,0, 291,130.542, 291,291
	c0,21.984-2.464,43.398-7.108,64L 896,512 L 896,511.95 z M 896,736c0-17.6-14.4-32-32-32l-64,0 c-17.6,0-32,14.4-32,32L 768,800 c0,17.6, 14.4,32, 32,32l 64,0 
	c 17.6,0, 32-14.4, 32-32L 896,736 z"  />
<glyph unicode="&#xe0c0;" d="M 1024,765.582c-37.676-16.708-78.164-28.002-120.66-33.080c 43.372,26, 76.686,67.17, 92.372,116.23
	c-40.596-24.078-85.556-41.56-133.41-50.98c-38.32,40.83-92.922,66.34-153.346,66.34c-116.022,0-210.088-94.058-210.088-210.078
	c0-16.466, 1.858-32.5, 5.44-47.878c-174.6,8.764-329.402,92.4-433.018,219.506c-18.084-31.028-28.446-67.116-28.446-105.618
	c0-72.888, 37.088-137.192, 93.46-174.866c-34.438,1.092-66.832,10.542-95.154,26.278c-0.020-0.876-0.020-1.756-0.020-2.642
	c0-101.788, 72.418-186.696, 168.522-206c-17.626-4.8-36.188-7.372-55.348-7.372c-13.538,0-26.698,1.32-39.528,3.772
	c 26.736-83.46, 104.32-144.206, 196.252-145.896c-71.9-56.35-162.486-89.934-260.916-89.934c-16.958,0-33.68,0.994-50.116,2.94
	c 92.972-59.61, 203.402-94.394, 322.042-94.394c 386.422,0, 597.736,320.124, 597.736,597.744c0,9.108-0.206,18.168-0.61,27.18
	C 960.22,686.454, 995.836,723.454, 1024,765.582z"  />
<glyph unicode="&#xe0c1;" d="M 136.294,209.070c-75.196,0-136.292-61.334-136.292-136.076c0-75.154, 61.1-135.802, 136.292-135.802
		c 75.466,0, 136.494,60.648, 136.494,135.802C 272.786,147.736, 211.764,209.070, 136.294,209.070zM 0.156,612.070l0-196.258 c 127.784,0, 247.958-49.972, 338.458-140.512c 90.384-90.318, 140.282-211.036, 140.282-339.3l 197.122,0 
		C 676.016,308.82, 372.736,612.070, 0.156,612.070zM 0.388,960l0-196.356 c 455.782,0, 826.756-371.334, 826.756-827.644L 1024-64 C 1024,500.47, 564.746,960, 0.388,960z"  />
<glyph unicode="&#xe0c2;" d="M 832,832L 192,832 c-105.6,0-192-86.4-192-192l0-384 c0-105.6, 86.4-192, 192-192l 640,0 c 105.6,0, 192,86.4, 192,192L 1024,640 C 1024,745.6, 937.6,832, 832,832z
		 M 960,256c0-33.978-13.374-66.062-37.654-90.346C 898.062,141.374, 865.98,128, 832,128L 192,128 c-33.978,0-66.062,13.374-90.344,37.654
		C 77.374,189.938, 64,222.022, 64,256L 64,640 c0,33.978, 13.374,66.062, 37.656,90.344S 158.022,768, 192,768l 640,0 
		c 33.978,0, 66.062-13.374, 90.346-37.656C 946.628,706.062, 960,673.978, 960,640L 960,256 zM 384,192L 704,448L 384,704 	z"  />
<glyph unicode="&#xe0c3;" d="M0,651.63l 41.594-54.544c0,0, 85.77,67.608, 114.36,33.802c 28.588-33.802, 137.736-441.956, 174.17-517.246
	c 31.8-66.030, 119.518-153.32, 215.714-90.982c 96.136,62.34, 415.84,335.286, 473.066,657.616
	c 57.18,322.226-384.72,254.726-431.53-26.010c 116.99,70.236, 179.436-28.538, 119.57-140.372
	c-59.758-111.724-114.36-184.592-142.952-184.592c-28.538,0-50.49,74.768-83.188,205.446c-33.798,135.102-33.592,378.46-174.116,350.87
	C 174.17,859.606,0,651.63,0,651.63z"  />
<glyph unicode="&#xe0c4;" d="M0,448A224,224 10260 1 1 448,448A224,224 10260 1 1 0,448zM 576,448A224,224 10260 1 1 1024,448A224,224 10260 1 1 576,448z"  />
<glyph unicode="&#xe0c5;" d="M 723.020,914.090C 656.11,944.352, 585.294,960, 511.922,960c-61.042,0-121.054-11.73-178.762-33.558l 389.86-353.68L 723.020,914.090 zM 248.444,10.728L 248.444,450.882 L 36.936,258.598C 77.926,155.868, 152.818,68.57, 248.444,10.728zM 278.624,903.18C 106.724,814.864, 0.002,641.106, 0.002,448c0-44.058, 6.626-88.736, 18.588-132.998l 453.82,412.362L 278.624,903.18zM 302.218-18.71C 368.772-48.77, 439.224-64, 511.922-64c 195.248,0, 374.56,113.634, 459.79,289.454L 302.218,225.454 L 302.218-18.71 zM 776.958,884.65l0-605.26 l 217.808,0 c 19.14,54.554, 29.234,111.172, 29.234,168.608C 1024.004,625.874, 929.302,792.008, 776.958,884.65z"  />
<glyph unicode="&#xe0c6;" d="M 512-64C 229.228-64,0,165.218,0,447.98C0,730.74, 229.23,960, 512,960c 282.75,0, 512-229.262, 512-512.020S 794.75-64, 512-64z
	 M 931.162,394.274c-100.48,13.188-189.588,14.142-268.99,1.876c 32.87-93.724, 60.376-194.692, 82.036-301.064
	C 844.692,161.35, 915.284,269.218, 931.162,394.274z M 663.562,53.854c-20.282,118.73-48.19,225.44-84.122,323.906
	c-134.458-40.354-239-126.678-326.748-263.002c 71.632-55.83, 161.448-89.358, 259.282-89.358
	C 565.48,25.4, 616.442,35.716, 663.562,53.854z M 89.374,447.98c0-104.544, 38.182-200.058, 101.086-273.864
	c 107.278,157.258, 228.018,239.168, 359.87,277.272c-10.862,25.542-22.116,50.754-34.22,75.296
	c-117.762-35.486-257.202-54.082-425.876-61.862C 90,459.212, 89.374,453.678, 89.374,447.98z M 98.92,536.922
	c 133.102,5.866, 263.050,20.674, 382.15,56.66c-45.356,81.040-98.61,157.166-159.382,231.382
	C 209.488,768.222, 125.992,663.18, 98.92,536.922z M 511.98,870.6c-37.040,0-72.764-5.24-107.010-14.186
	c 58.716-64.646, 112.178-143.274, 159.468-233.46c 82.204,33.946, 157.654,80.664, 223.494,144.688C 713.882,831.622, 617.564,870.6, 511.98,870.6z
	 M 839.102,715.472c-68.966-69.888-147.694-121.93-241.168-160.122c 12.754-27.54, 24.798-56.204, 36.454-85.448
	c 94.876,14.686, 194.856,11.442, 299.216,0.748C 928.686,563.296, 894.276,648.080, 839.102,715.472z"  />
<glyph unicode="&#xe0c7;" d="M 561.856,553c-39.042,2.282-84.082-0.048-136.25-8.95l 120.334-216.888L 1024,458.428
	c-5.154,12.26-12.686,24.226-22.662,35.798c-49.474,57.278-156.74,108.374-273.604,131.418l 0.002,0.026
	c-114.644,26.874-238.802,25.744-365.96,6.548c-4.584-0.688-9.144-1.422-13.68-2.184l-42.272,78.292
	c-41.142-5.492-79.808-14.050-115.606-25.474l 40.26-84.198c-65.76-25.476-119.722-61.76-158.658-105.432
	C 7.608,420.158-17.77,328.314, 13.074,238.87c 6.204-18.042, 14.588-35.16, 24.936-51.196l 478.068,131.298l-132.75,245.848
	c 4.558,0.88, 9.196,1.768, 13.928,2.624c 214.682,38.298, 332.102-20.864, 396.416-83.83l-163.558-39.648L 561.856,553z M 174.722,333.61
	c-14.758,67.352-3.012,142.526, 90.404,192.594l 73.138-152.948L 174.722,333.61z"  />
<glyph unicode="&#xe0c8;" d="M 849.196,804.094c 7.892,25.478, 18.444,82.058-10.52,154.488c0,0-51.096,16.226-166.678-61.13
			c-45.29,11.312-93.462,16.906-141.718,16.906c-53.094,0-106.744-6.766-156.786-20.488c-119.26,81.366-171.912,64.696-171.912,64.696
			C 167.208,872.62, 188.456,808.984, 194.92,793.178c-40.392-43.594-65.056-99.246-65.056-167.476c0-51.514, 5.866-97.72, 20.194-137.886
			l 15.064-34.122c 40.258-75.054, 119.648-123.532, 260.874-138.754c-20.044-13.458-40.49-36.36-48.778-75.112
			c-27.32-13.066-113.782-44.958-165.666,44.28c0,0-29.042,53.102-84.624,57.254c0,0-53.92,0.828-3.726-33.602
			c0,0, 36.080-17.002, 60.976-80.886c0,0, 32.472-108.984, 189.18-74.016l0-112.56 c0,0-3.31-39.814-39.812-53.080
			c0,0-21.562-14.946, 1.67-23.218c0,0, 101.178-8.298, 101.178,74.636l0,122.742 c0,0-4.014,48.676, 19.904,65.604l0-201.612 
			c0,0-1.654-48.112-26.534-66.352c0,0-16.602-29.846, 19.894-21.57c0,0, 69.666,9.958, 72.986,91.23l 1.578,204.028l 16.746,0 
			l 1.592-204.028c 3.316-81.272, 72.982-91.23, 72.982-91.23c 36.48-8.276, 19.898,21.57, 19.898,21.57
			c-24.882,18.25-26.536,66.352-26.536,66.352L 608.904,225.24 c 23.896-18.624, 19.898-63.866, 19.898-63.866l0-122.738 
			c0-82.942, 101.184-74.632, 101.184-74.632c 23.21,8.278, 1.664,23.208, 1.664,23.208c-36.498,13.268-39.81,53.084-39.81,53.084
			l0,160.884 c0,62.742-26.418,95.978-52.262,113.51c 150.614,14.938, 222.888,63.564, 256.188,139.128l 11.892,33.73
			c 11.166,40.236, 14.524,86.542, 14.524,138.176C 922.184,699.772, 894.362,759.014, 849.196,804.094z M 529.070,342.714
			c-164.184,0-297.254,24.71-297.254,183.368c0,37.982, 18.708,73.25, 50.742,102.518c 53.45,48.778, 143.894,22.95, 246.506,22.95
			c 102.156,0.016, 192.296,26.106, 245.812-22.336l 0.020-0.016c 32.438-29.392, 51.412-64.882, 51.412-103.118
			C 826.312,347.542, 693.23,342.714, 529.070,342.714zM 368.354,606.012c-34.158,0-61.848-39.848-61.848-89.012c0-49.178, 27.692-89.040, 61.848-89.040s 61.844,39.862, 61.844,89.040
			C 430.198,566.164, 402.508,605.976, 368.354,606.012zM 700.19,606.012c-34.156,0-61.842-39.848-61.842-89.012c0-49.178, 27.686-89.040, 61.842-89.040
			c 34.158,0, 61.844,39.862, 61.844,89.040C 762.036,566.164, 734.35,605.976, 700.19,606.012z"  />
<glyph unicode="&#xe0c9;" d="M 512,960C 229.23,960,0,730.77,0,448s 229.23-512, 512-512s 512,229.23, 512,512S 794.77,960, 512,960z M 816.056,143.944
	c-39.518-39.516-85.512-70.532-136.708-92.186c-13.006-5.5-26.214-10.328-39.6-14.492L 639.748,114 c0,40.334-13.834,70-41.5,89
	c 17.334,1.666, 33.25,4, 47.75,7s 29.834,7.334, 46,13s 30.666,12.416, 43.5,20.25s 25.166,18, 37,30.5s 21.75,26.666, 29.75,42.5
	s 14.334,34.834, 19,57s 7,46.584, 7,73.25c0,51.666-16.834,95.666-50.5,132c 15.334,40, 13.666,83.5-5,130.5l-12.5,1.5
	c-8.666,1-24.25-2.666-46.75-11s-47.75-22-75.75-41c-39.666,11-80.834,16.5-123.5,16.5c-43,0-84-5.5-123-16.5
	c-17.666,12-34.416,21.916-50.25,29.75c-15.834,7.834-28.5,13.166-38,16s-18.334,4.584-26.5,5.25s-13.416,0.834-15.75,0.5
	s-4-0.666-5-1c-18.666-47.334-20.334-90.834-5-130.5c-33.666-36.334-50.5-80.334-50.5-132c0-26.666, 2.334-51.084, 7-73.25
	s 11-41.166, 19-57s 17.916-30, 29.75-42.5s 24.166-22.666, 37-30.5s 27.334-14.584, 43.5-20.25s 31.5-10, 46-13
	s 30.416-5.334, 47.75-7c-27.334-18.666-41-48.334-41-89l0-78.23 c-15.098,4.494-29.98,9.804-44.6,15.988
	c-51.194,21.654-97.188,52.67-136.706,92.186c-39.516,39.518-70.534,85.512-92.186,136.708C 93.358,333.61, 82,389.914, 82,448
	s 11.358,114.39, 33.758,167.35c 21.654,51.194, 52.67,97.188, 92.186,136.706s 85.512,70.534, 136.706,92.186
	C 397.61,866.642, 453.914,878, 512,878s 114.39-11.358, 167.35-33.758c 51.196-21.654, 97.19-52.67, 136.708-92.186
	c 39.516-39.516, 70.532-85.512, 92.186-136.706C 930.642,562.39, 942,506.086, 942,448s-11.358-114.39-33.758-167.35
	C 886.588,229.456, 855.572,183.46, 816.056,143.944z"  />
<glyph unicode="&#xe0ca;" d="M0,434.632c0,88.89, 27.734,165.156, 83.2,228.8c-3.2,8.178-6.044,17.956-8.534,29.334c-2.49,11.376-4.8,27.022-6.934,46.934
	c-2.134,19.91-1.244,43.022, 2.666,69.332c 3.912,26.312, 11.022,53.156, 21.334,80.534c 1.778,0.712, 4.534,1.334, 8.266,1.868
	s 12.178,0.090, 25.334-1.334c 13.156-1.422, 27.466-4.622, 42.934-9.6c 15.466-4.976, 36.088-14.22, 61.868-27.732
	c 25.778-13.512, 52.888-30.756, 81.334-51.734C 360.178,815.612, 427.022,822.9, 512,822.9c 84.978,0, 151.644-7.29, 200-21.868
	c 28.444,20.978, 55.466,38.312, 81.066,52c 25.6,13.69, 46.49,22.846, 62.668,27.466c 16.176,4.624, 30.31,7.822, 42.398,9.6
	c 12.090,1.78, 20.8,2.134, 26.134,1.068l 8-1.602c 10.31-27.376, 17.332-54.22, 21.066-80.534c 3.732-26.31, 4.534-49.51, 2.398-69.6
	c-2.132-20.088-4.356-35.644-6.666-46.666c-2.31-11.024-5.066-20.8-8.266-29.334c 55.466-64, 83.2-140.266, 83.2-228.8
	c0-49.422-4.356-94.222-13.066-134.4c-8.71-40.176-20.8-75.022-36.268-104.534c-15.466-29.51-35.11-55.376-58.934-77.6
	c-23.822-22.222-49.688-40.534-77.6-54.934c-27.91-14.398-59.732-26.042-95.466-34.934c-35.732-8.888-72.178-15.11-109.332-18.666
	c-37.156-3.554-77.956-5.334-122.4-5.334c-44.444,0-85.156,1.78-122.134,5.334c-36.978,3.556-73.334,9.778-109.066,18.666
	c-35.734,8.89-67.466,20.536-95.2,34.934c-27.734,14.4-53.422,32.71-77.066,54.934s-43.2,48.090-58.666,77.6
	c-15.466,29.512-27.466,64.358-36,104.534C 4.266,340.41,0,385.21,0,434.632z M 136.534,300.232c0-30.22, 3.556-57.154, 10.666-80.798
	c 7.11-23.644, 16.088-43.466, 26.934-59.466c 10.844-16, 26.044-29.512, 45.6-40.534c 19.556-11.024, 38.49-19.556, 56.8-25.6
	c 18.312-6.044, 41.956-10.756, 70.934-14.134c 28.978-3.376, 54.844-5.422, 77.6-6.132s 51.556-1.066, 86.4-1.066
	c 34.844,0, 63.732,0.356, 86.666,1.066s 48.888,2.756, 77.868,6.132c 28.978,3.378, 52.624,8.090, 70.934,14.134
	c 18.31,6.042, 37.244,14.576, 56.8,25.6c 19.554,11.022, 34.754,24.534, 45.6,40.534c 10.844,16, 19.822,35.822, 26.934,59.466
	c 7.11,23.644, 10.666,50.578, 10.666,80.798c0,51.556-21.334,98.312-64,140.268c-12.8,12.8-27.734,22.49-44.8,29.066
	c-17.066,6.578-36.356,10.312-57.866,11.202c-21.512,0.888-42.044,0.71-61.602-0.534c-19.554-1.244-43.732-2.934-72.534-5.066
	c-28.8-2.134-53.688-3.202-74.666-3.202c-20.978,0-45.868,1.066-74.666,3.202c-28.8,2.132-52.978,3.822-72.534,5.066
	s-40.088,1.422-61.6,0.534c-21.512-0.888-40.71-4.624-57.6-11.202c-16.888-6.576-31.734-16.266-44.534-29.066
	C 157.866,398.544, 136.534,351.79, 136.534,300.232z M 272.534,312.5c0,23.822, 4.978,44, 14.934,60.534s 22.044,24.8, 36.266,24.8
	s 26.31-8.268, 36.266-24.8s 14.934-36.71, 14.934-60.534c0-23.466-4.978-43.556-14.934-60.268s-22.044-25.066-36.266-25.066
	s-26.31,8.356-36.266,25.066S 272.534,289.034, 272.534,312.5z M 443.734,161.566c-0.71,2.844-0.534,5.6, 0.534,8.268
	c 1.066,2.666, 2.844,4.356, 5.334,5.066c 6.044,2.488, 9.956,0.356, 11.734-6.4c 3.912-12.090, 10.49-21.868, 19.734-29.334s 19.378-11.2, 30.4-11.2
	c 11.022,0, 21.154,3.732, 30.4,11.2c 9.244,7.466, 15.822,17.244, 19.732,29.334c 1.78,6.756, 5.69,8.888, 11.732,6.4
	c 2.49-0.71, 4.268-2.4, 5.334-5.066c 1.066-2.668, 1.244-5.424, 0.534-8.268c-4.976-16.356-13.688-29.6-26.132-39.732
	c-12.446-10.134-26.31-15.202-41.6-15.202s-29.156,5.066-41.6,15.202C 457.422,131.966, 448.71,145.21, 443.734,161.566z M 476.8,226.1
	c0,4.624, 3.378,8.624, 10.134,12c 6.756,3.378, 14.756,5.066, 24,5.066s 17.244-1.688, 24-5.066c 6.756-3.376, 10.132-7.376, 10.132-12
	c0-4.622-3.376-8.622-10.132-12c-6.756-3.376-14.756-5.066-24-5.066s-17.244,1.69-24,5.066C 480.178,217.478, 476.8,221.478, 476.8,226.1
	z M 646.934,312.5c0,23.822, 4.976,44, 14.934,60.534c 9.956,16.534, 22.042,24.8, 36.266,24.8s 26.31-8.268, 36.268-24.8
	c 9.956-16.534, 14.934-36.71, 14.934-60.534c0-23.466-4.978-43.556-14.934-60.268c-9.958-16.71-22.044-25.066-36.268-25.066
	s-26.31,8.356-36.266,25.066C 651.91,268.944, 646.934,289.034, 646.934,312.5z"  />
</font>
</defs>
</svg>
