<?xml version="1.0" standalone="no"?>
<!DOCTYPE svg PUBLIC "-//W3C//DTD SVG 1.1//EN" "http://www.w3.org/Graphics/SVG/1.1/DTD/svg11.dtd">
<svg xmlns="http://www.w3.org/2000/svg">
<metadata>Copyright (C) 2018 by original authors @ fontello.com</metadata>
<defs>
<font id="fontello" horiz-adv-x="1000" >
<font-face font-family="fontello" font-weight="400" font-stretch="normal" units-per-em="1000" ascent="850" descent="-150" />
<missing-glyph horiz-adv-x="1000" />
<glyph glyph-name="141-startup" unicode="&#xe800;" d="M163 329l95 95c-54 40-131 40-189 0l94-95z m411-222l-95-94 95-95c40 57 40 133 0 189z m394 743c-226-41-432-148-594-310l-77-77c-83 66-207 63-289-18-11-11-11-28 0-39l548-548c11-10 28-11 39 0 79 79 85 203 18 289l77 77c163 163 270 368 310 593 2 16-10 35-32 33z m-489-837l95 95c39-57 39-133 0-189l-95 94z m-39 39l-237 238 210 211c145 144 325 243 524 286-43-199-141-379-286-523l-211-212z m-182 372l-95-95-94 95c58 40 135 40 189 0z m195 38l-35-35 70-69c10-11 10-28 0-39-11-11-32-8-40 0l-69 69-34-34 23-23c11-11 11-28 0-39-10-10-30-9-39 0l-23 23-25-25 159-159 172 172c115 115 199 253 247 406-153-49-291-133-406-247z m244 85c-36 36-95 36-131 0-36-36-36-95 0-131 36-36 95-36 131 0 36 36 36 95 0 131z m-39-92c-15-14-38-14-53 0s-14 38 0 52c15 15 38 15 53 0 14-14 14-37 0-52z m-553-501c48 19 92 40 102 49 14 15 14 38 0 53-17 15-38 15-54 0-9-9-29-53-48-102z m141 142c-40 38-97 34-132 0-28-28-71-145-83-180-8-18 9-43 35-35 35 12 152 55 180 83 36 36 36 95 0 132z m-39-40c14-14 14-38 0-53-10-9-54-29-102-49 19 49 39 93 48 102 16 15 37 15 54 0z" horiz-adv-x="1000" />

<glyph glyph-name="141-studying" unicode="&#xe801;" d="M839 273l10 131c-96 50-219 39-321-30v-388c92 31 200 11 287-51 4 50 11 156 11 156-28 15-48 45-48 80v16c0 40 26 74 61 86z m-688 131l10-131c35-12 61-46 61-86v-16c0-35-20-65-48-80v-1c4-52 7-104 11-155 87 62 195 82 287 51v388c-102 69-225 80-321 30z m631-149l8 113c-31 14-131 28-207-25v-289c53 9 132-4 183-28 1 21 6 91 6 91m-272 386c96 0 174 78 174 174s-78 173-174 173-174-78-174-174 78-173 174-173z m0 292c65 0 118-53 118-119s-53-118-118-118-118 53-118 118 53 119 118 119z m0 0c-65 0-118-53-118-119s53-118 118-118 118 53 118 118-53 119-118 119z m416-659v87h-47c-20 0-35-16-35-36v-16c0-19 15-35 35-35h47l0 0z m-750 35v16c0 20-16 35-35 35h-48v-86h48c19 0 35 16 35 35z m750 107h-21l10 139c1 11-4 20-13 26-116 70-267 62-392-21-125 82-277 91-392 21-9-5-14-15-14-26l10-139h-21c-30 0-55-25-55-55v-87c0-31 25-56 55-56h36c5-68 10-136 15-204 1-21 28-36 47-18 86 86 212 112 306 61 10-4 19-3 26 0 94 51 220 25 306-61 19-19 48 0 48 18 4 68 9 136 14 204h36c30 0 55 25 55 56v87c0 30-25 55-56 55z m-750-107c0-19-16-35-35-35h-48v86h48c19 0 35-15 35-35v-16l0 0 0 0z m306-185c-92 31-200 11-287-51-4 51-7 103-11 155v1c28 15 48 45 48 80v16c0 40-26 74-61 86l-10 131c96 50 219 39 321-30v-388z m343-51c-87 62-195 82-287 51v165h54c16 0 28 13 28 28 0 16-12 28-28 28h-54v50h122c15 0 28 13 28 28 0 15-13 28-28 28h-122v61c102 69 225 80 321 30l-10-131c-35-12-61-46-61-86v-16c0-35 20-65 48-80 0 0-7-106-11-156z m54 201c-20 0-35 16-35 35v16c0 20 15 36 35 36h47v-87h-47l0 0z" horiz-adv-x="1000" />

<glyph glyph-name="141-telescope" unicode="&#xe802;" d="M925 790c-11 39-54 71-106 56l-8-2c-29-9-50-33-57-61l-502-152c-38-12-62-48-59-87l-126-38c-37-11-71-54-56-106l2-8c13-44 60-70 106-56l126 38c15-26 42-42 73-42 8 0 17 1 25 3l113 35v-27c0-47 32-87 75-99v-43h-93c-16 0-28-12-28-28 0-16 12-28 28-28h60l-203-247c-10-12-8-30 4-40s29-8 39 4l193 234v-218c0-15 12-28 28-28 15 0 28 12 28 28v216l192-234c11-11 29-13 40-3 12 9 14 27 4 39l-205 249h62c15 0 28 12 28 28 0 15-12 28-28 28h-93v43c43 12 75 52 75 99v90l182 55c27-24 57-26 81-18l8 2c44 12 70 60 57 106l-65 212z m-823-400c-14-5-30 4-35 18l-3 9c-3 19 5 30 19 35l124 38 19-63-124-37z m504-47c0-26-21-47-47-47-26 0-47 21-47 47v44l94 28v-72h0z m-280 46c-14-4-30 4-35 19l-41 134c-4 15 4 31 19 35l185 57 15-51c3-12 19-24 35-19 15 5 24 21 19 36l-15 50 40 12 32-102c2-12 20-24 35-19 15 4 23 20 19 35l-32 103 156 47 2-5 55-183-489-149z m591 137l-9-3c-14-5-31 7-35 19l-64 213c-5 15 4 30 18 35l9 2c16 5 31-5 35-18l65-213c4-14-4-30-19-35z m-691-98l-19 62-124-38c-14-5-22-16-18-35l2-9c5-14 21-23 35-18l124 38z m590 110l-56 183-1 5-157-47 32-103c4-15-4-31-19-35-15-6-33 7-35 18l-32 103-40-12 15-51c5-15-4-30-19-35-16-5-32 7-35 19l-15 50-185-56c-15-5-23-20-19-35l41-134c4-15 21-24 35-19l490 149z m55 236c-4 13-19 23-35 19l-9-3c-14-4-23-20-18-35l64-213c4-12 21-24 36-19l8 3c15 5 23 21 19 35l-65 213z m-359-431c0-26 21-47 47-47 26 0 47 21 47 47v72l-94-28v-44h0z" horiz-adv-x="1000" />

<glyph glyph-name="141-test-tube" unicode="&#xe803;" d="M528 767c0 15-12 28-28 28s-28-13-28-28v-167h56v167h0z m-252-67h-167v-39h84c15 0 28-12 28-28 0-15-13-27-28-27h-84v-56h28c16 0 28-12 28-28 0-15-12-28-28-28h-28v-139h167v345l0 0z m-167-471c0-46 38-83 84-83s83 37 83 83v71h-167v-71z m698-83c46 0 84 37 84 83v71h-167v-71c0-46 37-83 83-83z m190-256l-57 112c-5 9-14 15-25 15h-332v416h85v-204c0-77 63-139 139-139 77 0 139 62 139 139v471c15 1 26 13 26 28 0 15-12 27-27 27h-275c-15 0-28-12-28-27 0-15 12-27 26-28v-100h-85v167c0 46-37 83-83 83s-83-37-83-83v-167h-85v100c14 1 26 13 26 28 0 15-13 27-28 27h-274c-16 0-28-12-28-27 0-15 11-27 26-28v-471c0-77 62-139 139-139s139 62 139 139v204h85v-416h-332c-11 0-21-6-25-15l-57-112c-9-17 2-39 25-40h944c22 0 34 22 25 40z m-273 810h167v-344h-167v344z m0-400h167v-71c0-46-38-83-84-83-46 0-83 37-83 83v71l0 0z m-448-71c0-46-37-83-83-83s-84 37-84 83v71h167v-71l0 0 0 0z m0 127h-167v139h28c16 0 28 12 28 28 0 15-12 27-28 27h-28v56h84c15 0 28 12 28 28 0 15-13 28-28 28h-84v38h167v-344l0 0v0z m196 411c0 15 13 28 28 28 15 0 28-13 28-28v-167h-56l0 167 0 0z m-140-278v56h337v-56h-337z m196-56v-416h-56v416h56z m-455-528l29 56h797l28-56h-854z" horiz-adv-x="1000" />

<glyph glyph-name="141-test-tube-1" unicode="&#xe804;" d="M56-39c0-31 25-56 55-56s56 26 56 56c0 18-26 66-56 110-29-44-55-92-55-110z m25 332c0-17 13-30 30-30s30 13 30 30c0 9-12 34-30 62-17-28-30-53-30-62z m868-21l-531 531c10 11 10 28-1 39-9 9-25 13-39 0l-244-244c-11-11-11-28 0-39 11-11 28-11 39-1l531-531c65-70 187-66 245 0 68 67 68 177 0 245z m-737 326l167 166 387-387h-333l-221 221z m698-532c-39-42-114-51-166 0l-256 256h333l89-89c46-46 46-121 0-167z m0 0c46 46 46 121 0 167l-89 89h-333l256-256c52-51 127-42 166 0z m-821 70c-15-20-89-122-89-175 0-61 50-111 111-111s111 50 111 111c0 53-74 155-89 175-10 14-33 14-44 0z m22-231c-30 0-55 25-55 56 0 18 26 66 55 110 30-44 56-92 56-110 0-31-25-56-56-56z m0 302c48 0 86 39 86 86 0 38-48 107-63 127-11 14-34 14-45 0-15-20-64-89-64-127 0-47 39-86 86-86z m0 147c18-27 31-52 31-61 0-17-14-30-31-30s-30 13-30 30c0 9 13 34 30 61z" horiz-adv-x="1000" />

<glyph glyph-name="141-think" unicode="&#xe805;" d="M739-95v32c0 100 36 200 100 279 59 74 80 131 79 223 0 196-159 355-355 355s-355-159-355-355v-82c0-7-2-13-6-18l-90-111h68c15 0 28-12 28-28v-82c0-19 15-34 33-34h74c15 0 28-12 28-28v-151h396v0z m40 378c-16 0-28 12-28 27 0 16 12 28 28 28h66c5 13 8 25 11 38h-127c-15 0-28 13-28 28 0 15 13 28 28 28h134c0 3 0 5 0 8 0 165-134 299-300 299s-299-134-299-299v-112l-35-44h35v-144h135v-180h286c5 106 44 208 112 291 8 10 15 20 21 31h-39v1z m-202 408c-71 9-136-47-136-121 0-15 13-27 28-27 16 0 28 12 28 27 3 43 31 69 74 66 29-3 55-28 58-58 3-29-13-57-40-68-32-14-54-48-54-85v-55c0-15 13-27 28-27 16 0 28 12 28 27v55c0 15 8 28 20 34 50 21 79 71 73 125-6 56-51 101-107 107z m-14-370c-15 0-28-12-28-27v-23c0-15 13-28 28-28 15 0 28 13 28 28v23c0 15-13 27-28 27z m0 529c-226 0-411-184-411-410v-73l-119-149c-7-8-8-19-4-29 5-10 15-16 25-16h98v-55c0-49 40-89 89-89h46v-151c0-16 13-28 28-28h452c15 0 28 12 28 28v59c0 88 31 175 88 245 58 73 91 164 91 258 0 226-185 410-411 410z m276-634c-65-79-100-179-100-279v-32h-396v151c0 16-13 28-28 28h-74c-18 0-33 15-33 34v83c0 15-13 27-28 27h-68l90 111c4 5 6 11 6 18v82c0 196 159 355 355 355s355-159 355-355c1-92-20-149-79-223z" horiz-adv-x="1000" />

<glyph glyph-name="141-tic-tac-toe" unicode="&#xe806;" d="M972 220h-287v260h287c15 0 28 12 28 27 0 16-12 28-28 28h-287v287c0 16-12 28-28 28s-27-12-27-28v-287h-260v287c0 16-12 28-27 28s-28-12-28-28v-287h-287c-15 0-28-12-28-28 0-15 12-27 28-27h287v-259h-287c-15-1-28-13-28-28s12-28 28-28h287v-287c0-16 12-28 28-28 15 0 28 12 28 28v287h259v-287c0-15 12-28 27-28 16 0 28 12 28 28v287h287c15 0 28 12 28 28 0 15-13 27-28 27z m-342 0h-260v260h259v-260h1z m55 315h287v287h-287l0 0v-287z m-370 287l0 0h-287v-287h287v287z m110-546c12-10 25-12 39 0l36 35 36-35c15-12 28-10 40 0 10 11 10 28-1 39l-35 35 35 36c11 11 11 28 1 39-11 11-29 11-40 0l-36-35-36 35c-11 11-28 11-39 0-11-11-11-28 0-39l35-36-35-35c-11-11-11-28 0-39z m-315 315c12-11 25-12 39-1l36 36 37-36c14-11 27-10 39 1 11 10 11 28 0 39l-36 35 36 36c11 11 11 28 0 39-11 11-28 11-39 0l-37-36-36 36c-10 11-28 11-39 0-11-11-11-29 0-40l36-35-36-35c-11-11-11-29 0-39z m151-481c-11 11-29 11-40 0l-36-35-36 35c-10 11-28 11-39 0-11-11-11-28 0-39l36-36-36-35c-11-11-11-28 0-39 12-11 25-12 39-1l36 36 37-36c14-11 27-10 39 1 11 10 11 28 0 39l-36 35 36 36c10 10 11 28 0 39z m554 583c-16 0-28-13-28-28 0-16 12-28 28-28 15 0 27 12 27 28 0 15-12 28-27 28z m0 55c-46 0-84-37-84-83s38-84 84-84c46 0 83 38 83 84s-37 83-83 83z m0-111c-16 0-28 12-28 28 0 15 12 28 28 28 15 0 27-13 27-28 0-16-12-28-27-28z m-315-574c-15 0-28-12-28-28 0-15 13-27 28-27 15 0 28 12 28 27s-13 28-28 28z m0 56c-46 0-83-38-83-84 0-46 37-83 83-83s83 37 83 83-37 84-83 84z m0-111c-15 0-28 12-28 27s13 28 28 28c15 0 28-12 28-28s-13-27-28-27z" horiz-adv-x="1000" />

<glyph glyph-name="141-tie" unicode="&#xe807;" d="M484 596h-127l-135-521c-3-11 1-23 10-30l172-134c9-7 23-7 33 0l171 134c9 7 13 19 10 30l-134 521z m-43-55h-41l-60-232h57c15 0 27-13 27-28 0-15-12-28-27-28h-71l-20-77h16c15 0 27-12 27-28 0-15-12-28-27-28h-31l-11-42 140-109 140 109-119 463z m393-306l-9 77c-1 7-4 14-11 19l-253 191-24 93 77 79c11 11 11 28 0 39l-107 109c-5 5-12 8-20 8h-134c-7 0-14-3-20-8l-106-109c-11-11-11-28 0-39l77-78-136-527c-8-32 3-67 30-88l171-134c30-22 72-24 102 0l171 134c27 21 38 55 30 88l-44 172 86-65c6-5 21-7 22-5l75 13c15 3 25 16 23 31z m-548 479l79 81h111l79-81-61-62h-147l-61 62z m323-669l-172-134c-9-7-24-7-33 0l-171 134c-10 7-13 19-11 30l135 521h127l135-521c2-11-2-23-10-30z m129 203l-132 100-23 88 188-142 5-40-38-6z" horiz-adv-x="1000" />

<glyph glyph-name="141-trophy" unicode="&#xe808;" d="M363 251h274l140 520c-183 31-371 31-553 0l139-520z m97-56c-3-46-15-97-55-142h194c-36 43-49 92-55 142h-84z m-191-225v-65h462v65c0 15-12 28-27 28h-407c-16 0-28-13-28-28z m26 756c16-55 32-111 48-169h109c15 0 28-13 28-28 0-15-12-28-28-28h-95c6-19 10-38 15-58h42c15 0 28-12 28-28 0-15-12-27-28-27h-28c7-27 14-55 21-82h186c36 149 74 289 112 419-72 18-253 32-410 1z m391-510c10 39 19 77 28 114 259 120 285 365 286 375 1 14-9 29-28 30h-148c5 17 10 34 15 50 6 19-7 34-21 35-210 40-426 40-635 0-15-3-26-17-21-35 5-16 10-33 15-49h-149c-17-2-30-13-28-31 1-10 27-255 286-374 9-38 19-76 28-114 3-13 14-22 27-22h63c-4-51-21-102-86-142h-21c-46 0-83-37-83-83v-92c0-15 12-28 27-28h518c16 0 28 12 28 28v92c0 46-37 83-83 83h-21c-55 37-75 82-83 142h59c13 0 24 9 27 21z m253 464c-14-59-61-192-207-277 25 96 50 189 76 277-1 0 131 0 131 0z m-878 0h132c25-88 50-181 75-278-148 86-194 218-207 278z m642-682c16 0 28-13 28-28v-65h-462v65c0 15 12 28 28 28h406z m-298 55c40 45 52 96 55 142h84c5-49 19-99 55-142h-194z m-42 198l-139 520c182 31 370 31 553 0l-140-520h-274z" horiz-adv-x="1000" />

<glyph glyph-name="141-trophy-1" unicode="&#xe809;" d="M362 256c-6 65-36 130-65 194-54 117-105 228-26 346h458c79-118 28-229-26-346-29-63-59-129-65-193h-276v-1z m334 483h-392c-8-16-12-32-15-48h133c15 0 28-13 28-28 0-16-12-28-28-28h-132c2-16 6-32 12-48 0 0 1 0 2 0h73c15 0 28-13 28-28 0-15-12-28-28-28h-54c8-18 16-37 26-58 24-51 48-105 61-160h180c13 56 37 108 61 160 51 111 82 188 45 266z m68 100c0 0-7 11-22 11h-484c-15 0-22-11-22-11-139 50-252-73-234-238 13-120 159-237 294-291 8-27 13-54 12-79 1-15 11-29 28-29h54v-85h-39c-23 0-44-14-52-35l-59-157c-15-35 13-75 52-75h417c40 0 66 39 52 75l-60 157c-8 21-28 36-52 36h-39v84h54c17 1 28 14 28 29-1 25 4 52 13 79 134 54 280 171 293 291 18 179-106 282-234 238z m-707-232c-10 107 66 210 149 183-65-130-9-253 42-363 7-15 13-29 19-43-112 58-202 150-210 223z m592-545l60-156h-417l59 156 298 0z m-203 55v85h108v-85h-108z m256 333c-29-64-59-129-64-194h-276c-6 65-36 130-65 194-54 117-105 228-26 346h458c79-118 28-229-27-346z m241 157c-8-73-98-165-210-223 6 14 12 28 19 43 51 110 108 233 43 363 82 23 165-60 148-183z" horiz-adv-x="1000" />

<glyph glyph-name="141-user" unicode="&#xe80a;" d="M548 363l96 60c5 3 12 5 19 3 16-3 33-4 50-4 127 0 231 84 231 186s-104 187-231 187-232-84-232-187c0-49 24-96 69-132 7-6 11-16 10-25l-12-88z m-308-153c83 0 151 68 151 151s-68 151-151 151-151-68-151-151 68-151 151-151z m0 246c53 0 96-43 96-95s-43-96-96-96-95 43-95 96c0 52 43 95 95 95z m86-291c-10 0-20-6-24-15l-62-112-61 112c-5 9-14 15-24 15-86 0-155-70-155-155v-132c0-16 12-28 28-28h425c15 0 28 12 28 28v132c0 85-70 155-155 155z m99-259h-369v104c0 50 36 90 83 98l77-142c11-18 37-21 49 0l77 142c47-8 83-48 83-98v-104h0z m-185 550c-52 0-95-43-95-95s43-96 95-96 96 43 96 96-43 95-96 95z m-184-550h369v104c0 50-36 90-83 98l-77-142c-12-21-38-18-49 0l-77 142c-47-8-83-48-83-98v-104z m579 805c-6-14 1-30 15-36 14-7 30 0 36 14 13 24 44 18 50-4 3-15-5-26-14-31-24-11-39-37-39-65 0 0-3-34 27-34s28 34 28 34c0 7 4 13 8 15 35 17 53 55 44 93-18 74-118 89-155 14z m75-180c-15 0-27-12-27-28v-19c0-15 12-27 27-27 16 0 28 12 28 27v19c0 16-12 28-28 28z m3 319c-159 0-288-108-288-242 0-62 27-120 78-165l-19-131c-3-21 19-41 42-27l138 85c16-3 32-4 49-4 158 0 287 109 287 242s-129 242-287 242z m0-428c-17 0-34 1-50 4-7 1-14 0-19-4l-96-59 12 87c1 10-3 20-10 26-45 35-69 82-69 132 0 103 104 187 232 187s231-84 231-187c1-103-104-186-231-186z" horiz-adv-x="1000" />

<glyph glyph-name="141-user-1" unicode="&#xe80b;" d="M716 321l-190-392c-8-17-35-25-50 0l0 0 0 0-191 392c-76-8-135-72-135-150v-266h700v266c0 78-59 142-134 150z m-216 474c-79 0-143-65-143-144s64-143 143-143 144 64 144 143-65 144-144 144z m-294-624v-24h59c16 0 28-13 28-28 0-16-12-28-28-28h-59v-43h13c15 0 27-12 27-27 0-16-12-28-27-28h-13v-32h192l-142 294c-30-16-50-48-50-84z m539 84l-142-294h192v210c0 36-20 67-50 84z m-245 197c110 0 199 89 199 199 0 110-89 199-199 199s-199-89-199-199c0-109 90-199 199-199z m0 343c79 0 144-65 144-144s-65-143-144-143-143 64-143 143 64 144 143 144z m199-417c-11 0-20-6-25-16l-95-195-11 98 35 31c14 13 12 31 0 42l-85 74c-10 10-26 10-36 0l-85-74c-12-10-13-31 0-42l35-31-11-96-94 193c-5 10-15 16-26 16-114 0-206-93-206-207v-293c0-16 12-28 27-28h756c15 0 28 12 28 28v293c0 114-93 207-207 207z m-199-23l43-38-20-17h-46l-19 17 42 38z m34-280l-33-70-35 71 20 168h29l19-169z m316-170h-700v266c0 78 59 142 135 150l191-392 0 0 0 0c15-25 42-17 50 0l190 392c75-8 134-72 134-150v-266h0z" horiz-adv-x="1000" />

<glyph glyph-name="141-utensils" unicode="&#xe80c;" d="M124 591l32 33c11 10 29 10 40 0 11-11 11-29 0-40l-32-32 57-57 60 60c11 11 29 11 40 0 11-10 11-28 0-39l-61-61 61-61 143 144-234 233c-10 11-29 11-40 0l-103-103c-12-11-11-28 0-40l37-37z m563-276l-143-143 62-62 61 60c11 11 28 11 39 0s11-28 0-39l-61-60 58-58 32 33c11 11 28 11 39 0 11-11 11-29 0-40l-32-32 37-37c11-11 29-11 40 0l103 103c11 11 11 29 0 40l-235 235z m-411-228l52-53 541 543c-25 8-48 20-68 36l-525-526z m486 566c-16 20-29 43-37 68l-541-542 52-53 526 527z m-473-658l-144 144-76-75c-18-18-18-48 0-66l79-79c17-18 48-18 65 0l76 76z m484 763c14-68 66-120 133-134l38 170-171-36z m173-183c4 3 8 9 9 15l44 192c9 41-26 74-67 67l-193-42c-7-1-12-5-16-9 0 0-1-1-1-1l-219-219-233 233c-32 31-84 33-119 0l-103-104c-32-30-34-87 0-118l234-234-252-252c-40-40-40-105 0-144l78-79c43-40 108-39 144 0l252 253 235-235c36-34 86-33 119 0l103 104c33 32 33 85 0 118l-235 234 219 219c0 1 0 1 1 2z m-686-119l61 60c11 11 11 29 0 40-11 11-29 11-40 0l-60-61-57 57 32 32c11 11 11 29 0 40-11 11-28 11-39 0l-33-33-37 37c-11 12-12 29 0 40l103 104c11 10 30 11 40 0l234-234-143-143-61 61z m465 265c8-25 21-48 37-68l-526-527-52 53 541 542z m-512-802c-17-18-48-18-65 0l-79 79c-18 18-18 47 0 66l76 75 144-144-76-76z m709 161c11-11 11-29 0-40l-103-103c-11-11-29-11-40 0l-37 37 32 32c11 11 11 28 0 39-11 11-28 11-39 0l-32-32-58 57 61 61c11 11 11 28 0 39s-28 11-39 0l-61-60-62 62 143 143 235-235z m-594-46l-52 53 525 526c20-16 43-28 68-37l-541-542z m578 590c-67 14-119 66-133 134l171 36-38-170z" horiz-adv-x="1000" />

<glyph glyph-name="141-abacus" unicode="&#xe80d;" d="M999-115l-33 113c-10 35-42 60-79 60v764c0 16-12 28-28 28-15 0-28-12-28-28v-103h-30c-12 32-43 55-79 55-36 0-67-23-78-55h-66c-11 32-42 55-78 55s-67-23-79-55h-65c-11 32-42 55-78 55s-67-23-79-55h-30v103c0 16-13 28-28 28s-28-12-28-28v-764c-36 0-69-25-79-60l-33-113c-6-18 10-36 27-35h944c21 0 32 20 27 35z m-688 534c11-32 42-55 78-55 36 0 67 23 79 55h176c11-32 42-55 78-55 37 0 67 23 79 55h31v-188h-253c-12 32-43 55-79 55-36 0-67-23-78-55h-253v188h142z m50 28c0 15 13 28 28 28s28-13 28-28c0-15-12-28-28-28s-28 13-28 28z m334 0c0 15 12 28 27 28 16 0 28-13 28-28 0-15-12-28-28-28-15 0-27 13-27 28z m-167-244c0-15-12-28-28-28-15 0-28 13-28 28 0 15 13 28 28 28 15 0 28-13 28-28z m-359-28h253c11-32 42-55 78-55 36 0 67 23 79 55h253v-117h-663v117z m553 544c16 0 28-13 28-28s-12-28-28-28c-15 0-27 12-27 28s12 28 27 28z m-222 0c15 0 28-13 28-28s-12-28-28-28c-15 0-28 12-28 28s13 28 28 28z m-222 0c15 0 28-13 28-28s-13-28-28-28c-16 0-28 12-28 28s13 28 28 28z m-78-56c11-32 42-55 78-55s67 23 79 55h65c11-32 42-55 79-55 36 0 66 23 78 55h65c11-32 42-55 78-55s67 23 79 55h31v-188h-31c-11 32-42 55-79 55s-66-23-78-55h-177c-11 32-42 55-78 55s-67-23-79-55h-141v188h31z m-135-757l22 77c3 11 14 20 27 20h773c12 0 23-9 26-20l23-77h-871v0z m870 0l-22 77c-3 11-14 20-27 20h-772c-12 0-23-9-27-20l-22-77h870v0z m-657 757c15 0 28 13 28 28 0 15-13 28-28 28-16 0-28-12-28-28 0-15 13-28 28-28z m222 0c15 0 28 13 28 28 0 15-12 28-28 28-15 0-28-12-28-28s13-28 28-28z m222 0c16 0 28 13 28 28 0 15-12 28-28 28-15 0-27-12-27-28s12-28 27-28z m-361-216c0-15 13-28 28-28s28 12 28 28c0 15-12 28-28 28-15 0-28-13-28-28z m334 0c0-15 12-28 27-28 16 0 28 12 28 28 0 15-12 28-28 28-15 0-27-13-27-28z m-223-244c0-15 13-28 28-28 15 0 28 13 28 28 0 16-12 28-28 28-15 0-28-13-28-28z" horiz-adv-x="1000" />

<glyph glyph-name="141-alarm-bell" unicode="&#xe80e;" d="M414 739c-79 0-149-30-203-80h94c15 0 28-12 28-28 0-15-13-28-28-28h-140c-8-11-14-24-20-36h78c15 0 28-12 28-28 0-15-13-28-28-28h-98c-5-22-8-45-8-69 0-164 133-297 297-297s297 133 297 297-134 297-297 297z m-307-834h614c15 0 28 13 28 28v73c0 16-12 28-28 28h-614c-16 0-28-12-28-28v-73c0-15 12-28 28-28z m413 537c0 59-48 106-106 106s-106-47-106-106 47-106 106-106c58 0 106 47 106 106z m-157 0c0 28 23 51 51 51s50-23 50-51-22-51-50-51c-28 0-51 23-51 51z m101 0c0 28-22 51-50 51-28 0-51-23-51-51s23-51 51-51c28 0 50 23 50 51z m530 48c0 46-37 83-83 83s-84-37-84-83c0-40 28-73 65-81 24-131-12-266-96-368-13 28-42 48-75 48h-102c121 71 203 202 203 353 0 225-184 408-409 408-224 0-407-183-407-408 0-150 81-281 202-352h-101c-46 0-84-38-84-84v-73c0-46 38-83 84-83h614c46 0 83 37 83 83v35c119 116 172 284 144 447 27 14 46 42 46 75z m-935-48c0 196 159 355 355 355s355-159 355-355-159-355-355-355-355 159-355 355z m690-509c0-15-13-28-28-28h-614c-16 0-28 13-28 28v73c0 16 12 28 28 28h614c15 0 28-12 28-28l0-73 0 0z m162 529c-15 0-28 12-28 28 0 16 13 28 28 28 16 0 28-12 28-28 0-15-12-28-28-28z" horiz-adv-x="1000" />

<glyph glyph-name="141-alarm-bell-1" unicode="&#xe80f;" d="M631 117l158 158c100 103 103 261 0 364-103 104-270 97-364 0l-158-158c-31-31-70-51-113-59l-73-13c-22-3-34-32-16-53l441-441c19-19 49-7 53 16l13 73c8 43 28 82 59 113z m119 483c-38 38-108 71-176 56l79-79c11-11 11-28 0-39-11-11-28-11-39 0l-99 99c-44-19-71-57-71-57l36-36c11-10 11-28 0-39-10-11-28-11-39 0l-36 36-99-99c-70-72-169-80-169-80l376-376c0 0 0 95 79 170l158 158c79 79 79 207 0 286z m-562-446c-37-13-63-47-63-87 0-51 42-92 93-92 40 0 74 25 87 62l-117 117 0 0z m812 573c0 68-55 123-123 123-66 0-119-51-122-116-125 65-275 40-369-56l-158-158c-23-23-52-38-84-44l-72-13c-74-17-93-96-46-147l120-120c-46-26-76-75-76-129 0-81 66-148 148-148 55 0 103 30 129 76l120-120c55-51 135-19 147 46l13 73c6 31 21 60 43 83l159 158c92 92 122 238 54 370 65 3 117 57 117 122z m-782-752c-51 0-92 42-92 93 0 39 25 74 62 87l0 0 117-117c-13-37-47-63-87-63z m572 300l-159-158c-30-31-51-70-59-113l-13-73c-3-23-34-35-53-16l-441 441c-18 21-6 50 17 53l72 13c43 8 82 28 113 59l158 158c95 97 261 104 365 0 102-103 100-261 0-364z m87 385c-38 0-68 30-68 67s30 68 68 68c37 0 68-30 68-68s-31-67-68-67z" horiz-adv-x="1000" />

<glyph glyph-name="141-alarm-bell-2" unicode="&#xe810;" d="M647 302v64c0 81-66 147-147 147s-147-66-147-147c1-22 1-42 0-62-4-109-37-195-97-257-12-15-1-34 15-34h458c18-1 26 21 15 34-63 70-97 161-97 255z m-56 0v64c0 50-41 92-91 92s-92-41-92-92v-24h72c15 0 28-12 28-28 0-15-13-28-28-28h-72c-1-11-1-22-3-33h35c15 0 27-12 27-28 0-15-12-28-27-28h-44c-11-45-30-89-54-129h316c-43 70-67 151-67 234z m-519 138c11 11 28 11 39 0 11-11 11-29 0-40-74-74-74-194 0-268 11-10 11-28 0-39-14-11-27-10-39 0-96 96-96 251 0 347z m79-79c11 10 28 10 39 0 11-11 11-29 0-40-30-30-30-79 0-109 11-11 11-28 0-39-13-12-31-9-39 0-52 52-52 136 0 188z m777 79c-10 11-28 11-39 0-11-11-11-29 0-40 74-74 74-194 0-268-11-10-11-28 0-39 15-11 28-10 39 0 96 96 96 251 0 347z m-79-79c-11 10-28 10-39 0-11-11-11-29 0-40 30-30 30-79 0-109-11-11-11-28 0-39 13-12 31-9 39 0 52 52 52 136 0 188z m-64-277c-53 60-82 137-82 218v64c0 81-48 150-116 183 6 27 9 58 9 89 0 102-30 212-96 212s-95-110-95-212c0-32 2-62 8-89-69-33-116-102-116-183v-64c0-81-29-158-82-218-44-52-8-125 55-127h122c0-28 11-55 31-75 21-21 48-32 77-32 29 0 56 11 76 32 21 20 32 47 32 75h121c69 0 98 83 56 127z m-285 710c11-3 40-56 40-156 0-26-2-50-6-73-11 2-22 4-34 4s-23-2-34-4c-4 23-6 47-6 73 0 100 29 153 40 156z m37-873c-20-20-54-20-74 0-10 10-15 23-15 36h105c-1-13-6-27-16-36z m193 92h-460c-16 0-27 19-14 34 60 62 93 148 97 257 1 20 1 40 0 62 0 81 66 147 147 147s147-66 147-147v-64c0-94 34-185 96-255 12-13 4-35-13-34z m-267-92c20-20 54-20 74 0 10 10 15 23 15 36h-105c1-13 6-27 16-36z m3 644c11 2 22 4 34 4s23-2 34-4c4 23 6 47 6 73 0 100-29 153-40 156-10-3-40-56-40-156 0-25 2-50 6-73z" horiz-adv-x="1000" />

<glyph glyph-name="141-alarm-clock" unicode="&#xe811;" d="M851 299h-40c-15 0-27 12-27 27 0 15 12 28 27 28h40c-14 172-151 309-323 322v-39c0-15-12-28-28-28s-27 13-27 28v40c-172-14-310-151-323-323h40c15 0 27-13 27-28 0-15-12-27-27-27h-40c13-172 151-310 322-323v39c0 15 13 28 28 28 15 0 27-13 27-28v-39c173 13 310 151 324 323z m-351-269c-163 0-296 133-296 296 0 164 133 297 296 297s296-133 296-297c0-163-132-296-296-296z m-214 707c27 27 18 67-9 85-66 42-149 34-200-7l-18 18c-11 11-29 11-40 0s-10-28 0-39l18-18c-42-58-46-138-6-200 17-28 58-35 85-9l170 170z m-209-131l0 0c-31 48-23 112 17 153 48 42 100 46 153 17l-170-170z m886 170l18 18c10 11 10 29 0 39-11 11-29 11-39 0l-19-18c-51 41-134 49-200 7-27-18-36-58-9-85l170-170c27-26 69-19 86 9 39 62 35 142-7 200z m-40-170l0 0-170 170c54 29 105 25 153-18 41-40 48-104 17-152z m-846 0l0 0 170 170c-53 29-105 25-153-18-40-40-48-104-17-152z m676 170l170-170 0 0c31 48 23 112-17 153-48 42-99 46-153 17z m-253-222c-15 0-27-12-27-27v-173h-93c-15 0-28-12-28-27s13-28 28-28h120c15 0 28 12 28 28v200c0 15-13 27-28 27z m407-228c0 225-182 407-407 407s-407-182-407-407c0-151 83-283 205-353l-76-76c-11-11-11-28 0-39 11-11 28-11 39 0l90 90c46-18 97-28 149-28s103 10 149 28l90-90c11-11 29-11 39 0 11 11 11 28 0 39l-76 76c122 70 205 202 205 353z m-379-350v39c0 15-12 28-28 28-15 0-27-13-27-28v-39c-172 13-310 151-323 323h40c15 0 27 12 27 27 0 15-12 28-27 28h-40c13 172 151 309 322 322v-39c0-15 13-28 28-28 15 0 27 13 27 28v40c172-14 310-151 323-323h-39c-16 0-28-13-28-28 0-15 12-27 28-27h39c-13-172-150-310-322-323z" horiz-adv-x="1000" />

<glyph glyph-name="141-apple" unicode="&#xe812;" d="M418 211c-16 0-28 12-28 28v81c0 16 12 28 28 28 15 0 27-12 27-28v-81c1-16-12-28-27-28z m164 0c-15 0-27 12-27 28v81c0 16 12 28 27 28 16 0 28-12 28-28v-81c0-16-12-28-28-28z m128 354c-6 1-80 14-149-64l-13-14c-26-27-70-27-96 0l-13 14c-39 42-86 65-130 65-6 0-57 10-104-47h95c15 0 28-12 28-28 0-15-12-27-28-27h-135c-6-12-12-25-17-39h74c15 0 29-12 28-28 0-15-12-27-27-27h-90c-8-43-9-88-3-134 22-154 121-275 225-275 7 0 43 0 71 20 21 15 48 21 74 21 26 0 51-7 73-21 38-24 65-20 71-20 105 0 204 121 225 275 23 163-50 314-159 329z m15 110c-66 10-133-9-193-52 11 50 40 120 123 176 12 9 16 26 7 39-9 13-26 16-38 7-108-72-140-166-149-227-61 46-132 68-200 57-223-35-279-299-254-454 34-211 173-371 335-371 48 0 91 14 129 37 9 6 21 6 30 0 42-25 84-37 129-37 162 0 306 159 336 371 31 227-83 431-255 454z m200-447c-26-181-149-323-281-323-34 0-67 11-99 29-27 17-57 17-89 0-30-18-63-28-100-29-132 0-255 142-280 323-26 201 65 369 207 392 68 10 140-20 197-81 12-12 29-11 41 0 57 61 128 91 197 81 141-19 234-195 207-392z m-507 120c-15 0-28-12-28-28v-81c0-16 13-28 28-28 15 0 28 12 28 28v81c0 16-13 28-28 28z m165 0c-16 0-28-12-28-28v-81c0-16 12-28 28-28 15 0 27 12 27 28v81c0 16-12 28-27 28z" horiz-adv-x="1000" />

<glyph glyph-name="141-archive" unicode="&#xe813;" d="M336-55v823c0 15-12 27-27 27h-221c-15 0-27-12-27-27v-824c0-15 12-27 27-27h221c15 0 27 12 27 28z m306 798c-5 13-21 19-34 14l-194-80c-14-6-20-21-14-34l298-725c6-13 21-19 34-14l194 80c14 6 20 21 15 34l-299 725z m-444-569c-33 0-61-27-61-61 0-33 28-60 61-60s61 27 61 60c0 34-27 61-61 61z m-61 256h123c15 0 27 12 27 27v262c0 15-12 27-27 27h-123c-15 0-28-12-28-27v-261c0-16 13-28 28-28z m95 55h-68v206h68v-206z m-34-256c-64 0-115-52-115-116 0-63 51-115 115-115s116 52 116 115c0 64-52 116-116 116z m0-176c-33 0-61 27-61 61s28 60 61 60 61-27 61-60-27-61-61-61z m791-15l-299 725c-16 40-62 59-102 42 0 0-196-81-197-81v44c0 45-37 82-83 82h-220c-46 0-83-37-83-82v-823c0-46 37-83 83-83h220c46 0 83 37 83 83v582l259-629c16-40 62-59 102-42l194 80c40 17 59 62 43 102z m-929-93v823c0 15 13 27 28 27h220c15 0 28-12 28-27v-824c0-15-13-27-28-27h-220c-15 0-28 12-28 28z m866 39l-194-80c-13-5-28 1-34 14l-298 725c-6 13 0 28 14 34l194 80c13 5 29-1 34-14l299-725c5-13-1-28-15-34z m-214 468l-95 230c-6 13-21 20-34 14l-108-45c-14-5-20-20-15-34l95-230c6-13 21-19 34-14l108 45c14 5 20 21 15 34z m-118-20l-75 181 59 25 75-182-59-24z m218-293c-13 30-46 44-76 32s-43-46-31-76c12-29 46-43 75-31 30 12 44 46 32 75z m48 20c-23 56-88 83-144 60-56-23-82-88-59-144 23-56 87-83 143-59 56 23 83 87 60 143z m-155-64c-12 29 2 63 31 76 30 12 64-2 76-32 12-29-2-63-32-75-29-12-63 2-75 31z" horiz-adv-x="1000" />

<glyph glyph-name="141-award" unicode="&#xe814;" d="M804 631l-193 28-86 176c-10 20-40 20-50 0l-86-176-193-28c-22-3-31-31-15-47l139-136-33-192c-4-23 20-40 40-30l56 30-13-98h-64c-12 0-23-8-26-19l-80-253c-6-15 6-36 26-36h548c19-1 32 20 26 36l-79 252c-4 12-15 20-27 20h-64l-13 98 56-29c20-11 43 6 40 29l-33 192 139 136c17 16 7 44-15 47z m-130-529l62-197h-472l62 197h348z m-248 56l17 130 57 30 57-30 17-130h-148v0h0z m205 320c-7-7-10-16-9-25l26-151-135 72c-8 4-18 4-26 0l-135-72 17 97h51c16 0 28 13 28 28 0 15-12 28-28 28h-42c1 8-2 17-8 23l-11 11h130c15 0 28 12 28 28 0 15-13 27-28 27h-187l-42 41 151 22c10 1 17 7 21 15l68 137 68-137c4-8 12-14 21-15l151-22-109-107z m-63 144l-68 137-68-137c-4-8-11-14-21-15l-151-22 42-41h187c15 0 28-12 28-28 0-15-13-27-28-27h-130l11-11c6-6 9-15 8-23h42c16 0 28-13 28-28 0-15-12-28-28-28h-51l-17-97 135 72c8 4 18 4 26 0l135-72-25 151c-2 9 1 18 8 25l109 107-151 22c-9 1-17 7-21 15z" horiz-adv-x="1000" />

<glyph glyph-name="141-backpack" unicode="&#xe815;" d="M728-94c30 0 56 18 65 44 26 73 40 150 40 233 0 272-149 494-333 494s-333-222-333-494c1-83 14-161 40-233 10-27 36-44 65-44h456z m-228 632c-32 0-69-21-103-61h68c15 0 28-12 28-28 0-15-12-28-28-28h-105c-9-17-17-35-24-55h46c15 0 28-13 28-28s-13-28-28-28h-62c-4-18-7-36-9-55h379c-21 177-118 283-190 283z m194-339h-241v-58c0-15-12-28-28-28-15 0-27 13-27 28v58h-91c-1-5-1-10-1-16 0-46 6-93 17-139l354 1c0 0 0 0 0 0 11 43 17 89 17 139 0 5 0 10 0 15z m-194 395c-120 0-249-165-249-411 0-54 6-105 19-152 6-25 28-42 53-42h354c26 0 48 17 54 42 13 53 20 104 19 152 0 246-129 411-250 411z m177-549l-354-1c-11 46-17 93-16 139 0 5 0 10 0 16h91v-58c0-15 12-28 28-28 15 0 27 13 27 28v58h241c0-5 0-101-16-154 0 0-1 0-1 0z m-357 265h62c15 0 27 12 27 28s-12 28-27 28h-46c7 20 15 38 24 55h105c15 0 28 13 28 28 0 15-13 28-28 28h-68c33 40 71 61 103 61 72 0 169-106 190-283h-379c2 19 5 37 9 55z m592 62l-53 23c-38 127-109 231-198 288v73c0 52-42 94-94 94h-134c-52 0-94-42-94-94v-73c-88-57-159-161-197-288l-53-23c-55-23-90-82-89-146l5-195c1-45 24-86 61-107 31-16 63-18 94-4 20-42 64-70 112-70h456c49 0 92 28 112 70 33-13 64-13 94 4 37 20 60 61 61 107l5 195c2 64-34 123-88 146z m-819-399c-20 11-32 34-33 59l-4 195c-1 42 21 80 55 94l15 6c-9-46-14-94-14-144 0-75 10-145 29-210-20-12-39-5-48 0z m302 783c0 21 17 39 39 39h133c22 0 39-18 39-39v-44c-34 13-69 21-106 21-36 0-71-7-105-21v44z m399-806c-10-26-36-44-65-44h-457c-29 0-55 18-65 44-26 72-39 150-39 233 0 273 149 494 332 494s333-221 333-494c0-83-13-160-39-233z m146 82c0-25-13-48-33-59-9-5-27-12-48 0 20 68 30 139 30 210 0 50-5 98-14 144l15-6c34-14 56-52 55-94l-5-195z" horiz-adv-x="1000" />

<glyph glyph-name="141-basketball" unicode="&#xe816;" d="M500 795c-245 0-444-200-444-445s199-444 444-444 445 199 445 444-200 445-445 445z m0-834c-214 0-389 175-389 389s175 389 389 389 389-174 389-389-175-389-389-389z m0 889c-276 0-500-224-500-500s224-500 500-500 500 224 500 500-224 500-500 500z m354-769c-74 59-119 146-127 241h217c-6-90-39-173-90-241z m0 537c51-67 84-150 89-240h-216c8 95 53 182 127 240z m-37 43c-85-69-138-172-146-283h-143v416c113-8 215-57 289-133z m-345 133v-416h-143c-8 112-61 214-146 283 74 76 176 125 289 133z m-326-713c-51 68-84 151-89 241h216c-7-95-53-182-127-241z m-89 297c5 90 38 173 89 241 74-59 120-146 127-241h-216z m126-339c85 69 139 172 146 283h143v-416c-113 8-215 57-289 133z m345-133v416h143c8-111 61-214 146-283-74-76-176-125-289-133z" horiz-adv-x="1000" />

<glyph glyph-name="141-bell" unicode="&#xe817;" d="M248-1c8 55 49 99 102 110v46c-183-5-294-54-294-82 0-18 58-57 192-74z m158 110c53-11 95-55 102-110 134 17 193 56 193 74 0 27-111 77-295 81v-45h0z m48-128c0 42-34 76-76 76s-76-34-76-76 34-76 76-76 76 34 76 76z m-76 719c26 0 47 21 47 47 0 26-21 48-47 48-26 0-47-22-47-48 0-26 21-47 47-47z m370-353c139 0 252 113 252 251s-113 252-252 252c-113 0-210-76-241-181-14 7-30 13-46 18 13 17 20 38 20 60 0 57-46 103-103 103s-103-46-103-103c0-22 7-43 19-59-115-36-200-144-200-272v-82c0-77-26-152-74-214-13-14-20-30-20-47 0-90 174-121 253-130 16-54 66-93 125-93s109 39 125 93c80 9 253 40 253 130 0 30-27 57-28 58-71 92-66 232-66 232 28-10 57-16 86-16z m-47-274c0-17-59-57-193-74-7 55-49 99-102 111v45c183-5 295-54 295-82z m-399-92c0 42 35 76 76 76s76-34 76-76-34-76-76-76-76 34-76 76z m49 174v-46c-54-11-95-55-103-110-134 17-192 56-192 74 0 28 111 77 295 82z m28 56c0 0 0 0-1 0 0 0 0 0 0 0-95 0-191-12-262-36 17 38 27 79 32 120l5 161c19 107 113 188 225 188 126 0 228-102 228-228 0 0-10-167 34-241-71 24-166 36-261 36z m-1 583c26 0 47-21 47-47 0-26-21-47-47-47-26 0-47 21-47 47 0 26 21 47 47 47z m370 0c108 0 197-88 197-195s-88-197-197-197c-30 0-59 7-86 21h0c-2 86-43 163-105 213 0 0 0 1 0 1 17 91 97 157 191 157z m-370-583c0 0 1 0 1 0 68 0 136-7 195-19-15 46-23 93-23 142v82c0 96-77 173-173 173-81 0-150-57-168-133h90c16 0 28-12 28-28 0-15-12-28-28-28h-94v-49h42c15 0 28-13 28-28s-12-28-28-28h-44c-3-35-11-69-22-103 60 12 128 19 196 19 0 0 0 0 0 0z m456 360c15 0 28 12 28 27 0 16-13 28-28 28h-58v103c0 15-12 28-28 28-15 0-27-13-27-28v-130c0-16 12-28 27-28l86 0 0 0z" horiz-adv-x="1000" />

<glyph glyph-name="141-blackboard" unicode="&#xe818;" d="M84 225h833c15 0 28 12 28 28v514c0 15-13 28-28 28h-833c-16 0-28-13-28-28v-514c0-15 12-28 28-28z m777 514h-722c-15 0-28-12-28-28v-9h103c15 0 28-12 28-28 0-15-13-28-28-28h-103v-38h19c16 0 28-12 28-27 0-16-12-28-28-28h-19v-245c0-15 13-28 28-28h722c16 0 28 13 28 28v403c0 16-12 28-28 28z m-510-314h-20v198c0 25-29 37-47 20l-67-67c-11-11-11-29 0-40 11-11 29-11 40 0l19 20v-131h-20c-15 0-28-13-28-28 0-15 12-28 28-28h95c16 0 28 12 28 28 0 15-12 28-28 28z m413 0h-20v198c-1 25-30 37-48 20l-67-67c-10-11-10-29 0-40 11-11 29-11 40 0l19 20v-131h-20c-15 0-28-13-28-28 0-15 13-28 28-28h96c15 0 28 12 28 28 0 15-13 28-28 28z m-190 158c-11 11-29 11-40 0l-34-34-34 34c-11 11-28 11-39 0-11-11-11-28 0-39l34-34-34-34c-11-11-11-29 0-40 12-12 29-10 39 0l34 34 34-34c11-10 28-12 40 0 11 11 11 29 0 40l-34 34 34 34c11 11 11 28 0 39z m343 267h-833c-46 0-84-37-84-83v-514c0-46 38-83 84-83h173l-84-284c-4-15 4-31 19-35s30 4 34 19l41 136h465l40-136c5-15 20-23 35-19 15 4 23 20 19 35l-85 283h176c46 0 83 38 83 84v514c0 46-37 83-83 83z m-634-788l32 108h369l32-108h-433z m662 191c0-15-13-28-28-28h-833c-16 0-28 12-28 28v514c0 15 12 28 28 28h833c15 0 28-13 28-28v-514l0 0z" horiz-adv-x="1000" />

<glyph glyph-name="141-book" unicode="&#xe819;" d="M907 519h-753c-54 0-98-44-98-98s44-98 98-98h753c-18 29-29 63-29 98 1 35 11 70 29 98z m-320-266c5 4 11 6 18 6s12-2 17-6l49-41v182h-133v-182l49 41z m347 168c0 42 20 79 54 103 20 15 15 49-15 51h-819c-85 0-154-69-154-154s69-154 154-154h328v-114c0-24 27-36 46-22l76 64 77-64c24-15 44 0 45 22v114h246c33 2 34 40 16 51-34 24-54 61-54 103z m-263-209l-49 41c-11 8-23 8-35 0l-49-41v181h133l0-181 0 0z m56 111v71h154c4-26 13-50 27-71h-181z m154 126h-716c-16 0-28-12-28-28 0-15 12-28 28-28h317v-70h-328c-54 0-98 44-98 98s44 98 98 98h753c-13-21-22-45-26-70z" horiz-adv-x="1000" />

<glyph glyph-name="141-bookshelf" unicode="&#xe81a;" d="M916 850h-833c-46 0-83-37-83-83v-889c0-15 12-28 28-28s28 12 28 28v54h888v-54c0-15 13-28 28-28 16 0 28 12 28 28v889c0 46-38 83-84 83z m28-862h-212v130c0 15-12 28-28 28-15 0-28-12-28-28v-130h-74v130c0 15-13 28-28 28-16 0-28-12-28-28v-130h-75v130c0 15-12 28-27 28-16 0-28-12-28-28v-130h-360v232h888l0-232 0 0z m0 287h-156v134c0 15-12 27-28 27-15 0-28-12-28-27v-134h-74v134c0 15-12 27-28 27s-28-12-28-27v-134h-74v134c0 15-12 27-28 27s-28-12-28-27v-134h-75v134c0 15-12 27-27 27-16 0-28-12-28-27v-134h-75v134c0 15-12 27-28 27-15 0-27-12-27-27v-134h-157v232h889l0-232 0 0z m0 288h-506v130c0 15-13 28-28 28-15 0-28-13-28-28v-130h-75v130c0 15-12 28-27 28-16 0-28-13-28-28v-130h-75v130c0 15-12 28-28 28s-28-13-28-28v-130h-65v204c0 15 12 27 27 27h833c16 0 28-12 28-27v-204l0 0v0z m-888-575h360v130c0 15 12 28 28 28s28-12 28-28v-130h74v130c0 15 13 28 28 28 16 0 28-12 28-28v-130h75v130c0 15 12 28 27 28 16 0 28-12 28-28v-130h212v232h-888v-232z m0 287h156v134c0 15 12 27 28 27 15 0 27-12 27-27v-134h75v134c0 15 12 27 28 27 15 0 27-12 27-27v-134h75v134c0 15 12 27 28 27s28-12 28-27v-134h74v134c0 15 13 27 28 27 16 0 28-12 28-27v-134h75v134c0 15 12 27 27 27 16 0 28-12 28-27v-134h156v232h-888v-232z m66 418c0 15 12 28 28 28s28-13 28-28v-130h74v130c0 15 12 28 28 28 15 0 28-13 28-28v-130h74v130c0 15 13 28 28 28 15 0 28-13 28-28v-130h507v204c0 15-13 27-28 27h-834c-15 0-27-12-27-27v-204h66c0 0 0 130 0 130z" horiz-adv-x="1000" />

<glyph glyph-name="141-bookshelf-1" unicode="&#xe81b;" d="M472 795h-224c-15 0-28-13-28-28v-56h99c15 0 28-12 28-27s-13-28-28-28h-99v-37h54c15 0 28-13 28-28 0-15-13-28-28-28h-54v-382h252v614h0z m308-28c0 15-13 28-28 28h-224v-614h251v586h1z m-28 83h-504c-46 0-83-37-83-83v-889c0-16 12-28 28-28 15 0 27 12 27 28v35h560v-35c0-16 12-28 27-28 16 0 28 12 28 28v889c0 46-37 83-83 83z m-224-55h224c15 0 27-13 27-28v-586h-251v614z m-308-139h99c15 0 28 12 28 28 0 15-13 28-28 28h-99v55c0 15 12 28 28 28h224v-614h-252v383h54c15 0 28 12 28 27 0 16-13 28-28 28h-54v37z m0-688v157h252v-157h-252z m308 0v157h251v-157h-251z m83 586c-15 0-28-12-28-28v-77c0-16 12-28 28-28 15 0 28 12 28 28v77c0 15-13 28-28 28z m-222-133c15 0 28 12 28 28v77c0 15-13 28-28 28-15 0-28-12-28-28v-77c0-16 13-28 28-28z m222-327c-15 0-28-12-28-28v-33c0-16 13-28 28-28 15 0 28 12 28 28v33c0 16-13 28-28 28z m-222 0c-15 0-28-12-28-28v-33c0-16 12-28 28-28 15 0 28 12 28 28v33c0 16-13 28-28 28z" horiz-adv-x="1000" />

<glyph glyph-name="141-brain" unicode="&#xe81c;" d="M437 0c-14-6-31-1-37 13-4 8-11 14-19 15-9 2-18 0-24-6l-48-43c14-46 52-73 100-73l0 0c23 0 45 7 64 20v387c-12-5-24-7-37-7-51 0-93 41-93 92 0 15 13 28 28 28s28-12 28-28c0-20 16-37 37-37 20 0 37 17 37 37v376c-28 20-67 26-100 14-33-12-57-39-64-72 2-18 17-32 36-32 20 0 37 17 37 37 0 15 12 28 28 28s28-13 28-28c0-51-42-92-93-92-43 0-79 30-89 70-7 1-13 1-19 1-38 0-74-18-95-48-34-47-24-109 22-145l10-22c0-20 17-37 37-37s37 17 37 37c0 15 12 28 28 28 15 0 28-13 28-28 0-51-42-92-93-92-38 0-71 24-85 57-42-16-70-55-70-100 0-55 45-102 102-108 25 7 42 17 43 36 2 13-3 25-14 33-12 9-15 26-6 39 9 12 27 15 39 6 27-20 41-53 36-87-5-38-31-66-81-80-38-27-53-76-35-117 22-49 73-72 126-58l55 49c19 18 45 25 71 20 26-5 47-22 59-46 6-13 0-30-14-37z m412 458c-4 0-7 2-11 4-6 2-14 1-20-2-20-11-26-27-19-49 4-9 11-16 20-19 14-6 21-22 16-36-5-11-15-18-26-18-36 10-52 29-61 51-20 54 7 105 47 122 17 7 35 9 53 6 36 37 41 92 11 135-21 30-57 48-95 48-6 0-13 0-19-1-10-40-46-70-90-70-51 0-92 41-92 92 0 15 12 28 28 28 15 0 28-13 28-28 0-20 16-37 37-37 19 0 34 14 36 33-7 32-31 59-64 71-33 12-72 6-100-14v-448c11 5 24 8 37 8 51 0 92-42 92-93 0-15-12-28-28-28s-28 13-28 28c0 21-16 37-37 37-20 0-36-16-36-37v-314c18-14 40-21 63-21 48 1 89 30 100 73l-48 43c-6 6-15 8-23 6-9-1-16-7-20-15-6-14-23-19-37-13s-19 24-13 37c12 24 33 41 59 46 26 5 52-2 72-20l54-49c44-14 107 9 126 58 18 42 3 92-37 118-21 18-15 49 14 51 60 4 107 51 107 109-1 53-41 99-96 108z m151-108c0 65-38 121-96 148 39 55 40 129 0 186-31 45-84 72-140 72-9 0-17-1-26-2-16 39-49 71-91 86-52 19-110 10-147-18-40 28-88 36-147 18-42-15-75-46-91-86-8 1-17 2-26 2-56 0-109-27-140-72-40-57-39-131 0-186-58-27-96-83-96-148 0-68 43-127 105-152-30-42-38-98-17-148 35-74 102-102 170-94 24-65 79-104 150-106l0 0c33 0 65 10 92 28 26-18 58-28 91-28 67 0 132 44 151 106 71-10 144 33 169 94 21 50 14 106-17 148 63 25 106 84 106 152z m-528 48c0-20-16-37-37-37-20 0-37 17-37 37 0 16-12 28-27 28-16 0-28-12-28-28 0-51 41-92 92-92 13 0 26 3 37 8v-387c-18-14-40-21-64-21l0 0c-48 0-85 27-99 73l47 43c7 6 16 9 24 7 8-2 15-7 19-15 7-14 23-20 37-13s20 23 13 37c-11 24-32 40-58 45s-52-2-72-20l-54-49c-54-14-104 9-126 58-18 42-4 90 34 117 51 14 76 42 82 80 5 34-9 67-36 87-13 9-30 6-39-6s-6-30 6-39c11-7 16-20 14-33-1-19-19-29-43-35-58 6-102 52-102 108 0 44 28 83 69 100 14-34 47-58 86-58 51 0 92 41 92 92 0 16-12 28-28 28-15 0-27-12-27-28 0-20-17-37-37-37s-37 17-37 37l-11 22c-46 36-55 99-22 146 21 30 57 48 95 48 6 0 12-1 19-2 10-40 46-70 89-70 51 0 93 41 93 92 0 16-13 28-28 28-15 0-28-12-28-28 0-20-16-37-37-37-19 0-34 15-36 33 7 33 31 59 64 71 33 12 72 7 100-14v-376h1v0z m365-157c-28-2-35-33-13-50 39-27 55-77 36-119-18-49-82-72-125-58l-55 49c-20 18-45 25-71 20-26-5-48-21-59-45-7-14-1-31 13-37 14-7 30-1 37 13 4 8 11 13 19 15 9 2 17-1 24-7l47-43c-10-42-51-72-99-73-23 0-46 7-64 21v314c0 21 17 37 37 37 20 0 37-16 37-37 0-15 12-28 28-28s28 13 28 28c0 51-42 93-93 93-13 0-25-3-37-8v448c28 20 67 26 101 14 32-12 56-39 64-72-2-18-18-32-37-32-20 0-37 17-37 37 0 15-12 28-27 28s-28-13-28-28c0-51 41-92 92-92 43 0 80 30 90 70 6 1 12 1 19 1 38 0 73-18 95-48 30-43 24-98-12-135-17 3-35 1-52-6-40-17-67-68-48-122 9-22 26-40 61-51 11 0 22 7 26 18 6 14-1 30-15 36-10 4-17 11-21 19-7 23 0 39 19 49 7 3 14 4 21 2 3-2 7-4 11-4 55-9 95-55 95-108 0-57-47-105-107-109z m-526 57c-15-5-23-21-17-35 8-24 5-50-8-72-13-21-36-35-61-38h0c-16-2-26-15-25-30 3-18 19-26 31-25 42 5 80 28 102 64 22 36 27 79 13 119-5 15-21 22-35 17z m40 287h-81c-17 0-31 14-31 31v6c0 15-12 28-28 28-15 0-28-13-28-28v-6c0-48 39-86 87-86h81c16 0 30-14 30-31 0-15 13-28 28-28 15 0 28 13 28 28 0 48-39 86-86 86z m466 31v6c0 15-12 28-28 28-15 0-28-13-28-28v-6c0-17-14-31-30-31h-81c-48 0-87-38-87-86 0-15 12-28 28-28s28 13 28 28c0 17 14 31 30 31h82c47 0 86 38 86 86z m-104-259c-13 8-30 4-38-9-8-13-4-30 9-38 22-13 36-35 38-61 3-25-6-49-24-67l0-1c-11-11-11-28 0-39 13-12 31-8 39 0 31 30 45 71 41 113-5 43-29 80-65 102z" horiz-adv-x="1000" />

<glyph glyph-name="141-briefcase" unicode="&#xe81d;" d="M757 98c0-15-12-28-28-28-15 0-27 12-27 28v85l-182-45c-13-3-27-3-40 0l-182 45v-85c0-15-12-28-28-28s-28 12-28 28v99l-102 26v-290c0-15 12-27 27-27h665c15 0 28 12 28 27v290l-103-26v-99l0 0 0 0z m160 482h-834c-15 0-27-13-27-28v-229c0-13 8-24 21-27l416-104c5-1 9-1 14 0l416 104c13 3 21 14 21 27v229c0 15-12 28-27 28z m0 55h-185c-10 120-110 215-232 215s-222-95-232-215h-185c-46 0-83-37-83-83v-229c0-88 84-86 84-86v-304c0-46 38-83 84-83h664c46 0 84 37 84 83v304c0 0 73 2 84 85v230c0 46-37 83-83 83z m-417 159c91 0 166-69 176-159h-352c10 90 85 159 176 159z m360-861c0-15-12-28-28-28h-664c-16 0-28 13-28 28v290l103-26v-99c0-16 12-28 28-28 15 0 27 12 27 28v85l182-45c13-3 27-3 40 0l182 45v-85c0-16 12-28 28-28 15 0 27 12 27 28v99l103 26v-290h0z m84 390c0-13-8-24-21-27l-416-104c-5-1-9-1-14 0l-416 104c-13 3-21 14-21 27v229c0 15 12 28 27 28h834c15 0 27-13 27-28v-229l0 0z" horiz-adv-x="1000" />

<glyph glyph-name="141-briefcase-1" unicode="&#xe81e;" d="M124 226v-293c0-15 13-28 28-28h696c16 0 28 13 28 28v293m-55-265v265h-27v-38c0-46-37-83-83-83h-16c-46 0-83 37-83 83v38h-223v-38c0-46-38-83-84-83h-16c-46 0-83 37-83 83v38h-26v-265h641z m96 321c15 0 28 12 28 28v285c0 16-13 28-28 28h-834c-15 0-27-12-27-28v-216-32-37c0-16 12-28 27-28m806 286h-778v-14h113c15 0 28-12 28-28 0-15-12-28-28-28h-113v-63h15c15 0 28-13 28-28 0-16-12-28-28-28h-15v-42h97c8 38 42 66 81 66h16c40 0 74-28 82-66h227c8 38 41 66 81 66h16c40 0 73-28 81-66h97v231l0 0z m-628-379c0-16 13-28 28-28h16c16 0 28 12 28 28v131c0 15-12 27-28 27h-16c-15 0-28-12-28-27v-131z m450 158h-16c-15 0-28-12-28-28v-130c0-16 13-28 28-28h16c15 0 28 12 28 28v131c0 15-13 27-28 27z m206 332h-225v88c0 46-37 83-83 83h-218c-46 0-83-37-83-83v-88h-225c-46 0-83-38-83-84v-285c0-41 30-75 69-82v-295c0-46 37-83 83-83h696c46 0 84 37 84 83v295c39 7 68 41 68 82v285c0 46-37 84-83 84z m-553 88c0 15 12 28 28 28h217c15 0 28-13 28-28v-88h-273v88z m512-834c0-15-12-28-28-28h-696c-15 0-28 13-28 28v293h82v-37c0-46 37-84 83-84h16c46 0 84 38 84 84v37h222v-37c0-46 38-84 84-84h16c46 0 83 38 83 84v37h82v-293h0z m-615 256v131c0 15 13 27 28 27h16c16 0 28-12 28-27v-131c0-16-12-28-28-28h-16c-15 0-28 12-28 28z m406 0v131c0 15 13 27 28 27h16c15 0 28-12 28-27v-131c0-16-13-28-28-28h-16c-15 0-28 12-28 28z m278 121c0-16-13-28-28-28h-123v38c0 46-37 83-83 83h-16c-46 0-84-37-84-83v-38h-222v38c0 46-38 83-84 83h-16c-46 0-83-37-83-83v-38h-123c-15 0-27 12-27 28v69h70c15 0 28 12 28 28 0 15-12 28-28 28h-70v64h168c15 0 28 12 28 27 0 16-12 28-28 28h-168v41c0 16 12 28 27 28h834c15 0 28-12 28-28v-285l0 0v0z" horiz-adv-x="1000" />

<glyph glyph-name="141-browser" unicode="&#xe81f;" d="M944 572h-888v-639c0-15 12-27 27-27h834c15 0 27 12 27 27v639l0 0z m-686-74c15 0 27-13 27-28 0-16-12-28-27-28h-147v-49h77c15 0 28-12 28-28 0-15-13-28-28-28h-77v-376h778v611h-778v-74h147v0z m-35-205l104-44v-162c0-9 5-18 13-23 97-63 228-58 320 0 9 5 13 14 13 23v162l65 27v-151c0-15 13-28 28-28s28 12 28 28v194c0 11-6 20-17 25l-266 114c-7 3-15 3-22 0l-265-114c-22-8-24-40-1-51z m395-190c-73-40-163-40-236 0v122l107-46c7-3 14-3 22 0l107 46v-122z m-118 299l195-83-195-84-195 84 195 83z m-11-223l-107 46v-122c73-40 163-40 236 0v122l-107-46c-8-3-15-3-22 0z m428 671h-834c-45 0-83-37-83-83v-834c0-46 38-83 83-83h834c46 0 83 37 83 83v834c0 46-37 83-83 83z m27-917c0-15-12-27-27-27h-834c-15 0-27 12-27 27v639h888l0-639 0 0z m0 695h-888v139c0 15 12 28 27 28h834c15 0 27-13 27-28v-139l0 0v0z m0 139c0 15-12 28-27 28h-834c-15 0-27-13-27-28v-139h888l0 139 0 0z m-225-28h-27c-15 0-28-12-28-28s13-28 28-28h27c15 0 28 13 28 28s-12 28-28 28z m-142 0h-438c-15 0-28-12-28-28s12-28 28-28h438c15 0 28 13 28 28s-13 28-28 28z m284 0h-27c-15 0-28-12-28-28s13-28 28-28h27c15 0 28 13 28 28s-13 28-28 28z" horiz-adv-x="1000" />

<glyph glyph-name="141-bus" unicode="&#xe820;" d="M94 27c0-15 13-28 28-28h756c15 0 28 13 28 28v244h-812v-244z m378 578h-378v-42h121c16 0 28-13 28-28 0-15-12-28-28-28h-121v-38h63c15 0 28-13 28-28 0-16-13-28-28-28h-63v-87h378v279z m-229-557c49 0 89 40 89 89 0 48-40 88-89 88s-88-39-88-88c0-49 40-89 88-89z m0 122c19 0 34-15 34-33s-15-33-34-33c-18 0-33 14-33 33 1 18 15 33 33 33z m514-122c49 0 89 40 89 89 0 48-40 88-89 88-49 0-89-39-89-88 0-49 40-89 89-89z m0 122c18 0 33-15 33-33s-15-33-33-33-33 14-33 33c0 18 15 33 33 33z m-354-61h194c16 0 28 12 28 28 0 15-12 28-28 28h-194c-15 0-28-13-28-28s13-28 28-28z m546 604c-133 90-288 137-449 137s-316-47-449-137c-8-5-12-14-12-23v-663c0-43 33-79 75-83v-66c0-16 13-28 28-28h135c15 0 28 12 28 28v66h390v-66c0-16 13-28 28-28h135c15 0 28 12 28 28v66c42 4 75 40 75 83v663c1 9-4 18-12 23z m-855-300h63c15 0 28 13 28 28 0 15-13 28-28 28h-63v38h121c16 0 28 13 28 28 0 16-12 28-28 28h-121v42h378v-279h-378c0 0 0 87 0 87z m155-508h-79v39h79v-39z m581 0h-79v39h79v-39z m76 122c0-15-12-28-28-28h-756c-15 0-28 13-28 28v244h812v-244h0z m0 299h-378v279h378v-279z m0 335h-812v14c122 78 262 120 406 120s285-42 406-120v-14z m-812 14v-14h812v14c-121 78-261 120-406 120s-284-42-406-120z" horiz-adv-x="1000" />

<glyph glyph-name="141-calculator" unicode="&#xe821;" d="M782 795h-564c-46 0-84-38-84-84v-722c0-46 38-83 84-83h564c46 0 83 37 83 83v722c0 46-37 84-83 84z m0 55h-564c-77 0-139-62-139-139v-722c0-77 62-139 139-139h564c77 0 139 62 139 139v722c0 77-62 139-139 139z m83-861c0-46-37-83-83-83h-564c-46 0-84 37-84 83v722c0 46 38 83 84 83h564c46 0 83-37 83-83v-722h0z m-620 660h117c15 0 28-13 28-28 0-16-12-28-28-28h-116v-29h51c15 0 28-13 28-28 0-16-12-28-28-28h-51v-35h508v210h-509v-34z m537 90h-564c-16 0-28-12-28-28v-265c0-16 12-28 28-28h564c15 0 28 12 28 28v265c0 15-13 28-28 28z m-28-266h-509v35h52c15 0 28 13 28 28 0 15-13 28-28 28h-52v29h117c15 0 28 13 28 28 0 15-12 28-28 28h-116v35h508v-211h0z m-453-111h-55c-31 0-56-25-56-55v-56c0-30 25-55 56-55h55c31 0 56 25 56 55v56c0 30-25 55-56 55z m-56-55h56v-56h-55v56h-1z m283 55h-56c-30 0-55-25-55-55v-56c0-30 25-55 55-55h56c30 0 55 25 55 55v56c0 30-25 55-55 55z m-56-55h56v-56h-56v56l0 0z m-171-179h-55c-31 0-56-25-56-56v-55c0-31 25-56 56-56h55c31 0 56 25 56 56v55c0 31-25 56-56 56z m-56-56h56v-55h-55v55h-1z m283 56h-56c-30 0-55-25-55-56v-55c0-31 25-56 55-56h56c30 0 55 25 55 56v55c0 31-25 56-55 56z m-56-56h56v-55h-56v55l0 0z m282 290h-55c-31 0-56-25-56-55v-290c0-31 25-56 56-56h55c31 0 56 25 56 56v290c0 30-25 55-56 55z m-55-55h55v-290h-55v290z" horiz-adv-x="1000" />

<glyph glyph-name="141-calculator-1" unicode="&#xe822;" d="M472 795h-361c-30 0-55-25-55-56v-361h416v417z m473-56c0 31-25 56-56 56h-361v-417h417v361z m-417-834h361c31 0 55 25 55 56v361h-416v-417z m-472 56c0-31 25-56 55-56h361v417h-416v-361z m768 653h-60v60c0 15-13 28-28 28-15 0-28-13-28-28v-60h-60c-15 0-27-13-27-28 0-15 12-28 27-28h60v-60c0-15 13-28 28-28 16 0 28 13 28 28v60h60c16 0 28 13 28 28 0 15-13 28-28 28z m-656-124c11-11 28-11 39 0l57 57 57-57c11-11 28-11 39 0 11 11 11 28 0 39l-57 57 57 57c11 11 11 28 0 39-11 11-28 11-39 0l-57-57-57 57c-11 11-28 11-39 0-11-11-11-28 0-39l57-57-57-57c-11-10-11-28 0-39z m481-404h175c15 0 28 12 28 28 0 15-12 28-28 28h-175c-16 0-28-13-28-28 0-15 12-28 28-28z m-473 0h176c15 0 28 12 28 28 0 15-13 28-28 28h-176c-15 0-27-13-27-28 0-15 12-28 27-28z m80 82h16c15 0 28 12 28 27 0 16-12 28-28 28h-16c-15 0-28-12-28-28 0-15 13-27 28-27z m16-108h-16c-15 0-28-12-28-28 0-15 13-27 28-27h16c15 0 28 12 28 27 0 16-13 28-28 28z m617 790h-778c-61 0-111-50-111-111v-778c0-61 50-111 111-111h778c61 0 111 50 111 111v778c0 61-50 111-111 111z m-417-945h-361c-30 0-55 25-55 56v361h416v-417z m0 473h-416v361c0 31 25 56 55 56h361v-417h0z m473-417c0-31-25-56-56-56h-361v417h417v-361z m0 417h-417v417h361c31 0 55-25 55-56v-361h1z" horiz-adv-x="1000" />

<glyph glyph-name="141-calculator-2" unicode="&#xe823;" d="M833-95c16 0 28 13 28 28v834c0 15-12 28-28 28h-666c-16 0-28-13-28-28v-834c0-15 12-28 28-28h666l0 0h0z m-81 359c0 15-12 27-27 27-16 0-28-12-28-27 0-16 12-28 28-28 15 0 27 12 27 28z m0-223c0 16-12 28-27 28-16 0-28-12-28-28s12-27 28-27c15 0 27 12 27 27z m-444 223c0 15-12 27-28 27-15 0-28-12-28-27 0-16 13-28 28-28 16 0 28 12 28 28z m222 0c0 15-12 27-28 27s-27-12-27-27c0-16 12-28 27-28s28 12 28 28z m-222-223c0 16-12 28-28 28-15 0-28-12-28-28s13-27 28-27c16 0 28 12 28 27z m222 0c0 16-12 28-28 28s-27-12-27-28 12-27 27-27 28 12 28 27z m303 809h-666c-46 0-84-37-84-83v-834c0-46 38-83 84-83h666c46 0 84 37 84 83v834c0 46-38 83-84 83z m28-917c0-15-12-28-28-28h-666c-16 0-28 13-28 28v834c0 15 12 28 28 28h667c15 0 27-13 27-28v-834h0z m-639 470h556c15 0 28 12 28 27v281c0 15-13 28-28 28h-556c-15 0-28-12-28-28v-281c1-15 13-27 28-27z m28 95h75c15 0 28 13 28 28s-13 28-28 28h-75v34h158c16 0 28 12 28 27 0 16-12 28-28 28h-158v41h500v-226h-500v40z m30-151c-46 0-83-37-83-83s37-84 83-84 84 38 84 84-38 83-84 83z m0-111c-15 0-27 12-27 28 0 15 12 28 27 28 16 0 28-13 28-28 0-16-12-28-28-28z m222 111c-46 0-83-37-83-83s37-84 83-84 84 38 84 84-37 83-84 83z m0-111c-15 0-27 12-27 28 0 15 12 28 27 28s28-13 28-28c0-16-12-28-28-28z m223 111c-46 0-84-37-84-83s38-84 84-84c46 0 83 38 83 84s-37 83-83 83z m0-111c-16 0-28 12-28 28 0 15 12 28 28 28 15 0 28-13 28-28 0-16-13-28-28-28z m-445-111c-46 0-83-38-83-84s37-83 83-83 84 37 84 83-38 84-84 84z m0-111c-15 0-27 12-27 27s12 28 27 28c16 0 28-12 28-28s-12-27-28-27z m222 111c-46 0-83-38-83-84s37-83 83-83 84 37 84 83-37 84-84 84z m0-111c-15 0-27 12-27 27s12 28 27 28 28-12 28-28-12-27-28-27z m223 111c-46 0-84-38-84-84s38-83 84-83c46 0 83 37 83 83s-37 84-83 84z m0-111c-16 0-28 12-28 27s12 28 28 28c15 0 28-12 28-28s-13-27-28-27z" horiz-adv-x="1000" />

<glyph glyph-name="141-calendar" unicode="&#xe824;" d="M943 50c2 1 0 474 0 474h-887v-590c0-16 13-28 28-28h605l56 20m198 841c0 15-12 28-27 28h-832c-15 0-28-13-28-28v-188h887v188h0z m-254-806v62c0 15 13 27 28 27h171v474h-776v-563h577z m-456 754c-15 0-28-13-28-28 0-16 13-28 28-28 15 0 28 13 28 28 0 15-13 28-28 28z m534 0c-16 0-28-13-28-28 0-16 12-28 28-28 15 0 28 13 28 28-1 15-13 28-28 28z m-142-247h-49c-16 0-28-12-28-28s12-27 28-27h49c15 0 28 12 28 27s-13 28-28 28z m201 0h-49c-15 0-28-12-28-28s13-27 28-27h49c16 0 28 12 28 27s-12 28-28 28z m-604-132h-49c-15 0-28-13-28-28 0-15 13-28 28-28h49c16 0 28 12 28 28 0 15-12 28-28 28z m202 0h-50c-15 0-27-13-27-28 0-15 12-28 27-28h50c15 0 27 12 27 28 0 15-12 28-27 28z m0 132h-50c-15 0-27-12-27-28s12-27 27-27h50c15 0 27 12 27 27s-12 28-27 28z m201-132h-49c-16 0-28-13-28-28 0-15 12-28 28-28h49c15 0 28 12 28 28 0 15-13 28-28 28z m201 0h-49c-15 0-28-13-28-28 0-15 13-28 28-28h49c16 0 28 12 28 28 0 15-12 28-28 28z m-604-133h-49c-15 0-28-12-28-28 0-15 13-28 28-28h49c16 0 28 13 28 28 0 15-12 28-28 28z m202 0h-50c-15 0-27-12-27-28 0-15 12-28 27-28h50c15 0 27 13 27 28 0 15-12 28-27 28z m201 0h-49c-16 0-28-12-28-28 0-15 12-28 28-28h49c15 0 28 13 28 28 0 15-13 28-28 28z m201 0h-49c-15 0-28-12-28-28 0-15 13-28 28-28h49c16 0 28 13 28 28 0 15-12 28-28 28z m-604-133h-49c-15 0-28-12-28-28 0-15 13-27 28-27h49c16 0 28 12 28 27 0 16-12 28-28 28z m202 0h-50c-15 0-27-12-27-28 0-15 12-27 27-27h50c15 0 27 12 27 27s-12 28-27 28z m-191 700c-46 0-83-37-83-83s37-84 83-84 83 38 83 84-37 83-83 83z m0-111c-15 0-28 13-28 28 0 16 13 28 28 28 15 0 28-12 28-28 0-15-13-28-28-28z m534 111c-46 0-84-37-84-83s38-84 84-84c46 0 83 38 83 84s-37 83-83 83z m0-111c-16 0-28 13-28 28 0 16 12 28 28 28 15 0 28-12 28-28 0-15-13-28-28-28z m149 191h-832c-46 0-83-37-83-83v-834c0-46 37-83 83-83h619c14 0 28 4 40 11l214 120c26 14 42 42 42 72v714c0 46-37 83-83 83z m-860-83c0 15 13 28 28 28h832c15 0 27-13 27-28v-188h-887v188z m689-841v69h123l-123-69z m198 124h-226c-15 0-28-12-28-28v-116h-605c-15 0-28 12-28 27v591h887c0 0 0-473 0-474z" horiz-adv-x="1000" />

<glyph glyph-name="141-cells" unicode="&#xe825;" d="M963 472h-148c-2 5-89 156-92 160l102 176c8 14 3 31-10 38-14 8-31 3-38-10l-102-176c-5 1-170 1-170 1-29 0-57-16-72-41 0 0-82-144-84-150-5 1-181 2-186 1l-102 176c-7 14-24 18-38 11-13-8-18-25-10-38l102-177c-3-4-86-146-86-146-15-26-15-57 0-83 0 0 83-142 86-146l-102-176c-8-14-3-31 10-38 13-8 31-3 38 10l102 177c5-1 180-1 185 0l102-177c7-13 24-18 38-10 13 7 18 24 10 38l-102 176c3 4 91 156 92 162 6-1 182-2 187-1l102-176c8-13 24-18 38-10 13 7 18 24 10 38l-102 176c3 4 90 155 92 160h148c15 0 28 12 28 27 0 16-13 28-28 28z m-530-230l-77-133c-5-9-14-14-24-14h-154c-10 0-19 5-24 14l-43 74h55c15 0 28 13 28 28 0 16-12 28-28 28h-87l-2 3c-5 9-5 19 0 28l14 24h156c15 0 28 12 28 28 0 15-12 28-28 28h-124l31 53c5 8 14 14 24 14h154c10 0 19-6 24-14l77-134c5-8 5-19 0-27z m328 189l-77-134c-5-8-15-14-24-14h-154c-10 0-20 6-24 14l-77 134c-5 8-5 19 0 27l77 134c4 8 14 14 24 14h154c9 0 19-6 24-14l76-134c5-8 5-19 1-27z m-405-28c-5 9-14 14-24 14h-154c-10 0-19-5-24-14l-30-54h123c16 0 28-12 28-27 0-16-12-28-28-28h-156l-14-25c-5-8-5-19 0-27l2-3h87c15 0 28-13 28-28 0-15-12-28-28-28h-55l43-74c5-9 14-14 24-14h154c10 0 19 5 24 14l77 133c5 9 5 19 0 28l-77 133z m328 189c-5 8-15 14-24 14h-154c-10 0-20-5-24-14l-78-134c-5-8-5-19 0-27l77-134c5-8 14-14 24-14h154c10 0 19 6 24 14l77 134c5 8 5 19 0 27l-76 134z" horiz-adv-x="1000" />

<glyph glyph-name="141-cells-1" unicode="&#xe826;" d="M149 795c-51 0-94-43-94-94s43-94 94-94 94 42 94 94-42 94-94 94z m370-470c0 31-25 56-56 56-31 0-56-25-56-56s25-57 56-57c31 0 56 26 56 57z m371 294c-30 0-55-24-55-54 0-30 25-55 55-55s54 25 54 55-24 54-54 54z m-94-565c-41 0-74-33-74-74 0-41 33-75 74-75 41 0 75 34 75 75 0 41-34 74-75 74z m-490-31c0 22-18 41-41 41s-40-19-40-41c0-22 18-41 40-41 23 0 41 19 41 41z m584 431c61 0 110 50 110 111s-49 110-110 110-110-50-110-110c0-10 1-19 4-28l-240-135c-20 21-49 34-81 34-17 0-33-4-48-11l-150 181c21 25 34 58 34 94 0 83-67 150-150 150s-149-67-149-150 67-149 150-149c26 0 51 7 72 19l151-180c-13-19-21-41-21-66 0-29 11-55 30-76l-87-134c-9 3-19 5-29 5-53 0-96-43-96-96 0-53 43-96 96-96s96 43 96 96c0 22-8 43-21 59l87 136c11-3 23-5 36-5 20 0 38 5 55 14l170-175c-14-21-22-46-22-72 0-72 58-130 130-130s129 58 129 130-58 130-129 130c-25 0-49-8-68-20l-170 176c10 17 16 37 16 59 0 10-1 19-4 28l240 135c20-21 48-34 79-34z m-835 247c0 51 43 93 94 93s94-42 94-93-42-94-94-94-94 42-94 94z m210-719c-22 0-40 19-40 41 0 22 18 40 40 40 23 0 41-18 41-40 0-22-18-41-41-41z m198 286c-31 0-56 26-56 57 0 31 25 56 56 56 32 0 57-25 57-56 0-31-25-57-57-57z m408-288c0-41-34-75-75-75s-74 34-74 75c0 41 33 74 74 74s75-33 75-74z m19 639c30 0 55-24 55-54s-25-55-55-55-55 24-55 55 25 54 55 54z" horiz-adv-x="1000" />

<glyph glyph-name="141-certificate" unicode="&#xe827;" d="M544 284c0 93 69 170 158 183v300c0 15-12 28-28 28h-506c-16 0-28-13-28-28v-644c0-16 12-28 28-28h451v40c-46 34-75 88-75 149z m103 166v289h-451v-589h405c-35 34-57 81-57 134 0 72 42 135 103 166z m27-344v-169l38 32c10 8 26 8 36 0l38-32v169c-18-5-37-8-56-8-19 0-38 3-56 8z m56 308c-72 0-130-58-130-130s58-130 130-130c72 0 130 58 130 130s-58 130-130 130z m28 54v299c0 46-38 83-84 83h-506c-46 0-84-37-84-83v-644c0-46 38-84 84-84h451v-161c0-23 26-37 45-21l66 54 65-54c21-16 45-1 46 21v257c45 34 75 88 75 149 0 93-69 170-158 184z m-139-373h-451c-16 0-28 12-28 28v644c0 15 12 28 28 28h506c16 0 28-13 28-28v-300c-89-13-158-90-158-183 0-61 29-115 75-149v-40h0z m166-158l-37 32c-11 9-26 9-36 0l-38-32v169c18-5 36-8 56-8 19 0 38 3 55 8v-169h0v0z m-55 216c-72 0-130 59-130 131s58 130 130 130c72 0 130-59 130-130 0-72-58-131-130-131z m-349 586h-158c-15 0-27-12-27-28v-212c0-15 12-28 27-28h158c15 0 28 12 28 28v212c0 16-13 28-28 28z m-28-212h-102v156h102c0 0 0-156 0-156z m229 117h-102c-16 0-28 12-28 27s12 28 28 28h102c15 0 27-12 27-28s-12-27-27-27z m0-151h-102c-16 0-28 12-28 27s12 28 28 28h102c15 0 27-12 27-28s-12-27-27-27z m-117-152h-193c-16 0-28 13-28 28 0 15 12 28 28 28h193c15 0 28-12 28-28s-13-28-28-28z m0-151h-193c-16 0-28 13-28 28s12 28 28 28h193c15 0 28-12 28-28s-13-28-28-28z" horiz-adv-x="1000" />

<glyph glyph-name="141-check" unicode="&#xe828;" d="M945 372v397c0 14-11 25-25 25h-840c-13 0-24-11-24-25v-397c0-14 11-25 24-25h571l7 109c2 24 28 33 46 19l114-98c4-4 7-7 8-10l8-20h86c13 0 25 11 25 25z m-424 152c-10 10-25 10-35 0l-48-48-48 48c-10 9-26 9-35 0l-48-48-49 48c-9 10-25 10-35 0l-65-65c-10-10-10-26 0-35 10-10 24-10 35 0l48 48 48-48c9-10 26-10 35 0l48 48 49-48c13-11 24-9 34 0l66 65c10 10 10 26 0 35z m312 152h-658c-13 0-24 11-24 24s11 25 24 25h658c14 0 25-11 25-25s-11-24-25-24z m-7-93h-651c-13 0-24 11-24 24 0 14 11 25 24 25h652c13 0 24-11 24-25 0-13-11-24-25-24z m114-632l-9 23-73-31 9-23c6-12 20-18 33-13l27 12c13 5 19 20 13 32z m60 421v397c0 45-36 81-80 81h-840c-44 0-80-36-80-81v-397c0-45 36-81 80-81h571l165-392c15-33 56-62 105-43l28 12c40 17 59 64 42 105l-134 319h63c44-1 80 35 80 80z m-60-421c6-12 0-27-13-32l-27-12c-13-5-27 1-33 14l-9 23 73 31 9-24z m-31 75l-73-32-124 295 73 31 124-294z m-202 321l3 50 38-33-41-17z m127 0l-9 20c-1 3-3 7-7 10l-114 98c-18 14-44 5-46-19l-7-109h-571c-13 0-24 11-24 25v397c0 14 11 25 24 25h840c14 0 25-11 25-25v-397c0-14-11-25-25-25h-86v0z" horiz-adv-x="1000" />

<glyph glyph-name="141-classroom" unicode="&#xe829;" d="M917 487h-834c-15 0-27-12-27-28v-526c0-15 12-27 27-27h834c15 0 27 12 27 27v526c0 16-12 28-27 28z m-534-325c-46-2-81-34-81-79 0-46 38-79 81-78 46 1 80 33 80 78 0 46-37 80-80 79z m45-79c-2-29-20-48-45-49-23 0-46 22-46 49h1c1 30 19 49 45 49 22 1 46-21 45-49h0z m136 79c-46-2-81-34-81-79 0-46 38-79 81-78 46 1 80 33 80 78 1 46-37 80-80 79z m46-79c-2-29-20-48-46-49-22 0-46 22-45 49h0c2 30 20 49 45 49 23 1 46-21 46-49h0z m-333 25c-1 39-21 51-66 51h-58v-153h34v49h24l34-49h42l-39 55c20 7 29 23 29 47z m-65-24h-25v45h26c17 0 30-2 30-21-1-19-10-24-31-24z m288 655c15 0 28 12 28 28 0 15-12 28-28 28s-28-13-28-28 13-28 28-28z m417-196h-91l-243 229c-3 44-39 78-83 78-45 0-82-36-83-81l-242-226h-92c-45 0-83-38-83-84v-526c0-46 38-83 83-83h834c46 0 83 37 83 83v526c0 46-37 84-83 84z m27-610c0-15-12-27-27-27h-834c-15 0-27 12-27 27v526c0 16 12 28 27 28h834c15 0 27-12 27-28v-526l0 0z m-444 862c15 0 28-13 28-28s-12-28-28-28-28 12-28 28 13 28 28 28z m-63-83c16-18 38-29 63-29 26 0 49 12 64 31l181-171h-489l181 169z m-210-355c17 0 30-6 41-20l21 24c-17 20-38 29-63 29-41 0-81-31-81-80 0-44 34-79 82-79 23 0 44 10 61 30l-22 22c-10-13-24-20-41-20-28 1-45 23-45 47 0 26 21 48 47 47z m323-124h37l-67 154h-33l-67-154h37l14 33h65l14-33z m-66 63l20 45 19-45h-39z m325 30c-18 5-34 7-34 20 0 10 8 16 18 15 14 0 28-5 41-15l18 25c-16 13-38 21-58 20-29 0-55-15-55-46 0-35 24-40 52-49 15-4 30-9 28-19-1-12-9-15-20-15-14 0-29 7-46 22l-20-25c19-19 41-28 65-28 32-1 58 20 57 47 1 25-16 41-46 48z m-94-48c1 25-16 40-47 47-17 5-33 8-34 21 1 9 9 16 19 15 14 0 28-6 41-16l17 26c-15 13-37 20-57 20-30 0-55-15-55-46 0-36 23-40 52-49 15-4 30-9 28-19-2-12-9-15-20-15-14 0-30 7-46 22l-21-26c20-18 42-27 66-27 32-2 58 20 57 47z" horiz-adv-x="1000" />

<glyph glyph-name="141-clipboard" unicode="&#xe82a;" d="M757 631h-513c-16 0-28-12-28-28v-670c0-15 12-28 28-28h513c15 0 28 13 28 28v670c0 16-13 28-28 28z m-485-670h457v615h-52c-4-11-14-18-26-18h-301c-12 0-22 7-26 18h-52v-615z m106 652h245v83h-71c-24 1-34 25-23 43 10 14 8 33-4 45-13 13-36 13-49 0-12-12-14-31-4-45 12-14 1-43-23-44h-71l0-82 0 0z m280-194h-315c-15 0-28 12-28 28 0 15 13 28 28 28h315c15 0 28-13 28-28 0-16-13-28-28-28z m0-134h-315c-15 0-28 13-28 28 0 15 13 28 28 28h315c15 0 28-13 28-28s-13-28-28-28z m0-134h-315c-15 0-28 13-28 28 0 15 13 28 28 28h315c15 0 28-12 28-28 0-15-13-28-28-28z m-158-133h-157c-15 0-28 12-28 27 0 16 13 28 28 28h157c16 0 28-12 28-28 0-15-12-27-28-27z m257 669h-79v36c0 16-12 28-27 28h-61c3 26-6 53-26 72-34 36-90 36-128 0-20-19-28-46-26-72h-61c-15 0-27-12-27-28v-36h-78c-46 0-84-38-84-84v-670c0-46 38-83 84-83h513c45 0 83 37 83 83v670c0 46-37 84-83 84z m-379 9h71c24 0 35 30 23 43-10 14-8 33 4 45 13 13 36 13 49 0 13-12 14-31 4-45-11-18-1-42 23-43h71v-83h-245v83z m407-763c0-15-13-28-28-28h-513c-15 0-28 13-28 28v670c0 16 13 28 28 28h78v-46c0-15 13-28 28-28h301c16 0 28 13 28 28v46h79c15 0 27-12 27-28v-670h0z" horiz-adv-x="1000" />

<glyph glyph-name="141-clock" unicode="&#xe82b;" d="M884 378h60v333c0 46-37 83-83 83h-333v-59c0-16-13-28-28-28s-28 12-28 28v60h-333c-46 0-83-38-83-84v-333h59c16 0 28-12 28-28 0-15-12-28-28-28h-59v-333c0-46 37-83 83-83h333v60c0 15 12 27 28 27 15 0 28-12 28-27v-60h333c46 0 83 37 83 83v333h-60c-15 0-28 13-28 28 1 15 13 28 28 28z m-718 306v-668h668v668h-668z m334-362h-158c-15 0-27 13-27 28 0 16 12 28 27 28h130v221c0 15 12 28 28 28s28-13 28-28v-249c-1-15-13-28-28-28z m291 280l62 62c11 11 11 29 0 40-11 11-28 11-39 0l-62-62c-11-11-11-29 0-40 11-10 29-10 39 0z m-583-504l-62-62c-11-11-11-28 0-40 11-10 29-10 40 0l62 63c11 10 11 28 0 39-11 11-29 11-40 0z m583 0c-10 11-28 11-39 0-11-11-11-28 0-39l62-63c11-10 28-10 40 0 10 11 10 29 0 40l-63 62z m-583 504c11-11 29-11 40 0 11 11 11 29 0 40l-62 61c-11 11-29 11-40 0-11-10-11-28 0-39l62-62z m653 248h-722c-77 0-139-62-139-139v-722c0-77 62-139 139-139h722c77 0 139 62 139 139v722c0 77-63 139-139 139z m0-944h-333v59c0 16-13 28-28 28s-28-12-28-28v-59h-333c-46 0-83 37-83 83v333h59c16 0 28 13 28 28 0 16-12 28-28 28h-59v333c0 46 37 83 83 83h333v-59c0-16 12-28 28-28 15 0 28 12 28 28v60h333c46 0 83-38 83-84v-333h-60c-15 0-28-12-28-28 0-15 13-28 28-28h60v-333c0-46-37-83-83-83z m-361 720c-15 0-28-12-28-27v-221h-130c-15 0-27-13-27-28 0-15 12-28 27-28h158c15 0 28 12 28 28v249c0 15-13 27-28 27z" horiz-adv-x="1000" />

<glyph glyph-name="141-compass" unicode="&#xe82c;" d="M885 331c5 14-2 30-17 36-14 5-30-2-35-17-22-59-57-109-101-149l-91 185c15 28 24 60 24 93 0 79-46 146-112 178v107c0 48-39 86-86 86-47 0-86-38-86-86v-107c-66-32-112-100-112-178 0-33 9-65 24-93l-171-349c-10-20-11-44-4-65l29-83c21-54 86-48 105-7l88 181c33-10 66-16 99-18v-47c0-15 12-28 28-28 15 0 28 13 28 28v46c34 2 67 8 100 17l87-179c21-44 87-43 105 7l28 83c8 21 7 45-4 65l-54 112c56 47 101 109 128 182z m-198-166c-20-13-42-25-64-35l-81 167c23 9 44 23 62 40l83-172z m-251 599c0 17 14 31 31 31 17 0 30-14 30-31v-89c-10 1-20 2-30 2s-21-1-31-2v89z m31-142c78 0 142-64 142-142s-64-143-142-143-142 64-142 143 63 142 142 142z m-267-719l-29 87c-3 7-2 16 1 23l158 324c18-17 39-31 62-41l-192-393z m295 197v44c0 15-13 28-28 28-15 0-28-13-28-28v-43c-25 2-50 6-74 13l82 169c23-4 33-1 40 0l83-171c-25-7-50-11-75-12z m266-87c4-7 5-16 2-23l-30-87-86 177c22 10 44 21 64 35l50-102z m-138 117c22 10 44 22 64 35l-83 172c-18-17-39-31-63-41l82-166z m89-15c-21-13-42-25-65-34l87-177 29 86c3 8 2 16-1 23l-50 102z m-320 181c-23 10-44 24-62 41l-158-324c-3-7-4-16-1-23l29-87 192 393z m105 379v89c0 17-13 31-30 31-17 0-31-14-31-31v-89c10 1 20 2 31 2 10 0 20-1 30-2z m-30-338c78 0 142 64 142 142s-64 143-142 143-142-64-142-142 63-143 142-143z m-1 177c-17 0-31-14-31-31 0-17 14-30 31-30 17 0 30 14 30 30 0 17-13 31-30 31z m0 55c-48 0-86-38-86-86 0-47 38-86 86-86s86 39 86 86c0 48-39 86-86 86z m0-116c-17 0-31 14-31 30 0 17 14 31 31 31 17 0 30-14 30-31 0-17-13-30-30-30z" horiz-adv-x="1000" />

<glyph glyph-name="141-computer" unicode="&#xe82d;" d="M299-67c0-15 12-28 28-28h346c16 0 28 13 28 28v538h-402v-538z m201 320c-23 0-42-19-42-42s19-41 42-41 42 18 42 41c0 23-19 42-42 42z m173 597h-346c-46 0-84-37-84-83v-834c0-46 38-83 84-83h346c46 0 84 37 84 83v834c0 46-37 83-84 83z m-374-221h402v-103h-402v103z m28 166h346c16 0 28-13 28-28v-82h-402v82c0 15 12 28 28 28z m346-890h-346c-16 0-28 13-28 28v538h402v-538c0-15-12-28-28-28z m28 862c0 15-12 28-28 28h-346c-16 0-28-13-28-28v-82h402v82l0 0z m-104-556c0 54-43 97-97 97s-97-43-97-97c0-53 44-97 97-97s97 44 97 97z m-97-41c-23 0-42 18-42 41 0 23 19 42 42 42 23 0 42-19 42-42 0-23-19-41-42-41z m-85-159h-34c-16 0-28-12-28-27 0-16 12-28 28-28h34c15 0 28 12 28 28 0 15-13 27-28 27z m205 0h-34c-16 0-28-12-28-27 0-16 12-28 28-28h34c15 0 27 12 27 28 0 15-12 27-27 27z" horiz-adv-x="1000" />

<glyph glyph-name="141-cubes" unicode="&#xe82e;" d="M889 259h-243c-30 0-55-25-55-55v-243c0-31 25-55 55-55h243c31 0 55 25 55 55v243c1 30-24 55-55 55z m-535 0h-243c-30 0-55-25-55-55v-243c0-31 25-55 55-55h243c30 0 55 25 55 55v243c0 30-25 55-55 55z m25 536c-31 0-56-25-56-56v-243c0-30 25-55 56-55h243c30 0 55 25 55 55v243c0 31-25 56-55 56 0 0-243 0-243 0z m-25-945h-243c-61 0-111 50-111 111v243c0 61 50 111 111 111h243c61 0 111-50 111-111v-243c0-61-50-111-111-111z m-243 409c-30 0-55-25-55-55v-243c0-31 25-56 55-56h243c30 0 55 25 55 56v243c0 30-25 55-55 55l-243 0 0 0z m778-409h-243c-61 0-111 50-111 111v243c0 61 50 111 111 111h243c61 0 111-50 111-111v-243c0-61-50-111-111-111z m-243 409c-30 0-55-25-55-55v-243c0-31 25-56 55-56h243c31 0 55 25 55 56v243c0 30-25 55-55 55l-243 0 0 0z m-41 260c4-16-7-29-20-29-8 0-16 5-20 14l-16 39h-98l-17-39c-3-9-11-14-19-14-13 0-26 15-20 29l85 213c3 8 11 13 20 13 8 0 16-5 20-13l85-213z m-73 67l-32 81-32-81h64z m89 264h-242c-61 0-111-50-111-111v-243c0-61 50-111 111-111h243c61 0 111 50 111 111v243c-1 61-50 111-112 111z m56-354c0-30-25-55-56-55h-242c-31 0-56 25-56 55v243c0 31 25 56 56 56h243c30 0 55-25 55-56v-243h0z m-392-395c7 11 11 25 11 40 1 42-30 68-69 69h-59c-11 0-21-9-21-21v-213c0-12 10-21 21-21h75c34 0 75 31 75 80 0 28-12 52-33 66z m-95 66h37c0 0 27-2 27-26 0-26-27-27-32-27h-32c0 0 0 53 0 53z m50-170h-50v75h50c26 0 35-24 35-37 1-37-34-38-35-38z m625 2c6-10 1-23-9-29-18-10-39-15-60-15-71 0-128 57-128 127s57 128 128 128c21 0 42-5 60-15 11-6 15-19 9-29-6-11-18-14-29-9-12 7-26 10-41 10-46 0-85-38-85-85 0-47 39-85 85-85 15 0 29 4 41 11 11 5 23 1 29-9z" horiz-adv-x="1000" />

<glyph glyph-name="141-cutter" unicode="&#xe82f;" d="M882 753c-73 63-155 47-205-5l-420-469 151-150 468 420c60 48 64 146 6 204z m-40-39c-16 16-37 25-60 25-25 0-47-10-64-28l-33-38 73-73c10-10 10-27 0-38-10-10-27-10-37 0l-72 72-37-42 35-34c11-11 11-29 0-40-11-11-28-11-39 0l-33 33-242-270 76-76 430 385c17 16 27 38 28 61 0 24-8 46-25 63z m79 79c-75 74-205 81-285-8l-438-488c-10-11-10-28 1-38l15-15-184-184c-8-8-10-21-5-32l80-162c10-19 32-20 44-8l225 225 13-12c13-11 26-11 38-1l488 438c85 71 86 212 8 285z m-783-868l-54 110 169 170 82-82-197-198z m738 624l-468-420-151 150 420 469c50 52 132 68 204 5 59-58 55-156-5-204z m-380-145l-91-91c-11-11-11-28 0-39 13-11 26-11 39 0l91 91c11 11 11 28 0 39-11 11-29 11-39 0z" horiz-adv-x="1000" />

<glyph glyph-name="141-desk" unicode="&#xe830;" d="M804 795c-77 0-141-63-141-141s64-140 141-140c77 0 140 63 140 140s-63 141-140 141z m0 55c-108 0-196-88-196-196s88-196 196-196 196 88 196 196-88 196-196 196z m0-336c-77 0-141 63-141 140s64 141 141 141c77 0 140-63 140-141s-63-140-140-140z m-56 112h56c15 0 28 13 28 28v84c0 15-13 28-28 28-16 0-28-12-28-28v-56h-28c-16 0-28-12-28-28 0-15 12-28 28-28z m168-324h-223v-368c0-16 13-28 28-28h195c16 0 28 12 28 28v340c0 15-12 28-28 28z m-728 167l12-61h146c15 0 27-13 27-28 0-15-12-28-27-28h-134l9-45h51c15 0 28-12 28-27 0-16-13-28-28-28h-40l19-91h190l63 308-316 0 0 0z m728-112h-379l28 134c3 16-8 34-28 34h-383c-19 0-30-16-27-34l27-134h-71c-45 0-83-37-83-83v-396c0-15 12-28 28-28s28 12 28 28v396c0 15 12 28 28 28h82l28-141h-38c-16 0-28-12-28-28 0-15 12-28 28-28h7v-227c0-16 13-28 28-28s28 12 28 28v228h253v-228c0-15 12-28 28-28 15 0 28 12 28 28v228h8c15 0 27 12 27 27 0 16-12 28-27 28h-39l29 141h112v-368c0-46 37-84 83-84h195c46 0 84 38 84 84v340c0 46-38 83-84 83z m-665-196l-19 91h40c15 0 28 12 28 27 0 16-13 28-28 28h-51l-9 45h134c15 0 28 12 28 28 0 15-12 28-28 28h-145l-13 61h316l-63-308h-190v0z m693-227c0-16-12-28-28-28h-195c-15 0-27 12-27 28v368h222c16 0 28-13 28-28v-340l0 0z m-167 250c-16 0-28-12-28-28v-105c0-15 12-27 28-27 15 0 28 12 28 27v105c0 16-13 28-28 28z" horiz-adv-x="1000" />

<glyph glyph-name="141-desk-1" unicode="&#xe831;" d="M988 633c-13 9-30 6-39-7-100-145-75-345-60-426h-302c-15 0-27-12-27-28 0-15 12-27 27-27h28v-267c0-16 12-28 28-28 15 0 28 12 28 28v119h170v-119c0-16 12-28 28-28 15 0 27 12 27 28v267h28c20 1 31 17 27 35-1 2-67 255 44 415 9 12 5 30-7 38z m-147-580h-171v92h171v-92z m-341 742c-77 0-140-63-140-141 0-77 63-140 140-140s140 63 140 140-63 141-140 141z m0 55c-108 0-196-88-196-196s88-196 196-196 196 88 196 196-88 196-196 196z m0-336c-77 0-140 63-140 140s63 141 140 141 140-63 140-141-63-140-140-140z m-56 112h56c15 0 28 13 28 28v84c0 15-13 28-28 28-15 0-28-12-28-28v-56h-28c-15 0-28-12-28-28 0-15 13-28 28-28z m68-257l-479 95c-15 3-29-7-32-22-3-15 7-29 22-32l37-8v-524c0-15 12-28 28-28s28 13 28 28v85h42c15 0 27 13 27 28s-12 28-27 28h-43v44h88c15 0 28 12 28 28s-13 28-28 28h-88v77h304v-318c0-15 13-28 28-28 15 0 28 13 28 28v442c0 0 30-6 32-6 13 0 25 9 27 22 3 15-7 30-22 33z m-93-118h-304v140l304-60v-80z" horiz-adv-x="1000" />

<glyph glyph-name="141-desk-2" unicode="&#xe832;" d="M916 411h-439l-20 62h112c15 0 27 13 27 28v321c0 15-12 28-27 28h-442c-15 0-28-12-28-28v-321c0-15 12-27 28-27h112l-20-63h-136c-46 0-83-37-83-83v-450c0-15 12-28 28-28s28 12 28 28v366h549v-366c0-15 12-28 27-28s28 12 28 28v32h284v-32c0-15 13-28 28-28 16 0 28 12 28 28v450c0 45-38 83-84 83z m-761 118v265h386v-265h-386z m260-105h-134l16 49h102l16-49z m529-459h-284v279h284v-279l0 0 0 0z m0 335h-888v28c0 15 12 27 27 27h833c16 0 28-12 28-27v-28l0 0z m0 28c0 15-12 27-28 27h-833c-15 0-27-12-27-27v-28h888l0 28 0 0z m-201-159c-15 0-27-12-27-28v-73c0-15 12-28 27-28 16 0 28 13 28 28v73c0 16-12 28-28 28z" horiz-adv-x="1000" />

<glyph glyph-name="141-desk-3" unicode="&#xe833;" d="M525 418h-442c-15 0-27-13-27-28v-388h469v416h0z m392 55h-175v112h100c20 1 33 19 26 37l-75 210c-4 11-15 18-27 18h-104c-11 0-22-7-26-18l-75-210c-4-22 5-34 26-37h100v-112h-604c-46 0-83-37-83-83v-512c0-16 12-28 28-28s28 12 28 28v68h469v-68c0-16 13-28 28-28h419c16 0 28 12 28 28v512c0 46-37 83-83 83z m-392-471h-469v388c0 15 12 28 27 28h442v-416h0v0z m102 638l55 154h65l55-154h-175z m317-734h-363v290h363v-290z m0 345h-363v167h336c15 0 27-13 27-28v-139l0 0z m-833 111v-32h113c16 0 28-12 28-28 0-15-12-27-28-27h-113v-47h45c15 0 28-13 28-28 0-15-12-28-28-28h-45v-115h359v305h-359v0z m-10 164h250c15 0 27 13 27 28 0 16-12 28-27 28h-250c-16 0-28-12-28-28 0-15 13-28 28-28z m0 85h250c15 0 27 13 27 28 0 16-12 28-27 28h-250c-16 0-28-12-28-28 0-15 13-28 28-28z m0 86h250c15 0 27 12 27 28s-12 27-27 27h-250c-15 1-28-12-28-27s13-28 28-28z m843-307c0 15-12 28-27 28h-336v-167h363v139z m-157-28h-49c-15 0-28-12-28-28s13-27 28-27h49c15 0 28 12 28 27s-13 28-28 28z m-123-379c15 0 28 12 28 27v81c0 15-12 28-28 28-15 0-28-13-28-28v-81c0-15 13-27 28-27z" horiz-adv-x="1000" />

<glyph glyph-name="141-desk-4" unicode="&#xe834;" d="M581-17c0-15 12-27 28-27h307c16 0 28 12 28 27v104h-363v-104z m-235 612h50c12-53 54-91 104-91s92 38 104 91h50c15 0 31 15 28 28-3 90-69 162-154 175v24c0 15-13 28-28 28-15 0-28-12-28-28v-24c-86-13-151-85-154-175 0-14 10-27 28-28z m154-35c-20 0-37 14-46 35h92c-9-21-26-35-46-35z m0 184c59 0 108-39 122-94h-244c14 55 63 94 122 94z m0-184c20 0 37 14 46 35h-92c9-21 26-35 46-35z m228-379h70c15 0 27 12 27 28 0 15-12 28-27 28h-70c-16 0-28-13-28-28 0-16 12-28 28-28z m0-187h70c15 0 27 12 27 28 0 15-12 27-27 27h-70c-16 0-28-12-28-27 0-16 12-28 28-28z m188 447h-833c-46 0-83-37-83-83v-480c0-15 12-28 28-28s28 12 28 28v110h470c0 0-5-58 49-81v-29c0-15 12-28 28-28 15 0 28 13 28 28v22h264v-22c0-15 12-28 28-28 15 0 27 13 27 28v29c30 13 50 42 50 77v374c0 46-38 83-84 83z m-391-397h-469v231h469v-231z m419-61c0-15-12-27-28-27h-307c-16 0-28 12-28 27v104h363v-104z m0 160h-363v132h363v-132l0 0z m0 187h-391-497v28c0 15 12 28 27 28h833c16 0 28-13 28-28v-28l0 0z m0 0v28c0 15-12 28-28 28h-833c-15 0-27-13-27-28v-28h497 391z" horiz-adv-x="1000" />

<glyph glyph-name="141-desk-lamp" unicode="&#xe835;" d="M759 659c-4 10-14 16-25 16h-60c-10 98-93 175-193 175-107 0-194-87-194-194v-639c0 0-12 3-23-9l-109-111c-16-16-7-45 20-47h562c28 1 35 31 20 47l-108 111c-6 6-13 9-20 9h-78v21c0 15-13 27-28 27s-28-12-28-27v-21h-152v639c0 77 62 139 138 139 70 0 128-52 137-120h-58c-10 0-20-6-25-16l-90-194c-10-20 6-40 25-40h50c13-59 65-103 128-103s114 44 127 103h50 0c22-1 35 26 23 43l-89 191z m-142-698l54-56h-430l54 56h322z m30 417c-31 0-58 20-69 47h139c-11-28-38-47-70-47z m-134 103l65 139h138l65-139h-268z m134-103c32 0 59 20 70 47h-139c11-28 38-47 69-47z" horiz-adv-x="1000" />

<glyph glyph-name="141-desk-lamp-1" unicode="&#xe836;" d="M748 515l-135-79c23-20 60-29 95-9 32 19 47 54 40 88z m-124 234c0 0 0 1 0 1-28 43-74 58-124 32-26-18-41-39-43-64l65 36c14 8 31 3 38-10 8-14 3-31-11-38l-82-46c1-1 1-1 1-1 10-17 17-34 22-52l26 14c13 7 30 2 37-11s3-30-11-38l-42-23c0-1 2-114 2-114l300 176-94 55c-34 20-63 49-84 83z m-426-184c-15 0-28-12-28-27s12-28 28-28c17 0 28 15 28 28 0 15-13 27-28 27z m305-541c-9 18-27 30-48 30s-40-12-49-30c16 2 32 3 49 3s33-1 48-3z m-48-53c-104 0-187-31-217-65h433c-30 34-113 65-216 65z m-16 613c3-13 5-27 6-41l2-156c0-18 21-35 42-23l74 43c45-51 120-60 174-27 54 32 83 100 61 164l74 44c18 11 18 37 0 48l-136 78c-26 16-48 38-64 64 0 1 0 1 0 1-47 73-134 89-200 52-73-48-89-124-54-195l-153-48c-16 20-40 33-67 33-46 0-83-37-83-83s37-83 83-83c3 0 6 0 9 0l176-372c-20-16-34-40-38-67-104-22-175-74-175-138 0-16 13-28 28-28h513c0 0 0 0 0 0 16 0 28 12 28 28-2 44-27 73-68 98v36c0 16-12 28-27 28-16 0-28-12-28-28v-10c-16 6-34 11-52 14-8 53-54 94-109 94-8 0-15-1-21-2l-177 371c14 15 24 34 24 56l158 49z m269-157c-35-20-72-11-95 9l135 79c7-34-8-69-40-88z m-208 355c50 26 96 11 124-32 0 0 0 0 0-1 21-34 50-63 84-83l94-55-300-176c0 0-2 113-2 114l43 23c13 7 18 24 11 38-7 13-24 18-38 11l-25-14c-5 18-13 35-22 51-1 1-1 1-1 2l82 46c13 7 18 24 11 37-8 14-25 19-38 11l-66-37c3 26 18 47 43 65z m171-877h-433c30 35 113 66 217 66s186-31 216-66z m-216 149c21 0 39-12 48-30-15 2-32 3-48 3s-33-1-49-3c9 18 27 30 49 30z m-257 456c-15 0-28 12-28 28 0 15 12 27 28 27s28-12 28-27c0-13-11-28-28-28z" horiz-adv-x="1000" />

<glyph glyph-name="141-diploma" unicode="&#xe837;" d="M852 280c0 0 37-4 37 27v404c0 16-12 28-28 28h-722c-15 0-28-12-28-28v-404c0-15 13-28 28-28h298m384 366h-642c-15 0-27 12-27 28 0 15 12 27 27 27h642c15 0 27-12 27-27 0-16-12-28-27-28z m0-120h-642c-15 0-27 13-27 28 0 15 12 28 27 28h642c15 0 27-12 27-28 0-15-12-28-27-28z m-441-135h-201c-15 0-27 12-27 28 0 15 12 28 27 28h201c16 0 28-13 28-28 0-16-12-28-28-28z m536 460h-832c-46 0-84-37-84-83v-515c0-46 38-83 83-83h391v-67c0-16 12-28 27-28h37v-196c-1-19 23-37 45-22l62 49 62-49c20-14 44-2 45 22v196h36c16 0 28 12 28 28v67h101c46 0 83 37 83 83v515c0 46-37 83-84 83z m-220-915l-34 27c-10 8-24 8-34 0l-35-27v120l32-32c13-12 28-11 39 0l32 32 0-120 0 0z m72 270c-5-5-8-12-8-20v-56h-56c-7 0-14-3-20-8l-39-40-40 40c-5 5-12 8-20 8h-56v57c0 7-3 14-8 19l-40 40 40 40c5 5 8 12 8 20v56h56c7 0 15 3 20 8l40 40 39-40c5-5 12-8 20-8h56v-56c0-8 3-15 8-20l40-40-40-40z m176 47c0-15-12-28-27-28h-51c0 0 23 19 1 41l-51 51v73c0 15-12 28-28 28h-73l-51 51c-11 11-28 11-39 0l-51-51h-73c-15 0-28-13-28-28v-73l-51-51c-21-21 1-41 1-41h-339c-16 0-28 13-28 28v515c0 15 12 28 28 28h833c15 0 28-13 28-28v-515h-1z m-319-229l-32 32v-120l35 27c10 8 24 8 34 0l34-27v119l-32-32c-11-10-26-11-39 1z m143 182l40 40-40 40c-5 5-8 12-8 20v56h-56c-7 0-14 3-20 8l-39 40-40-40c-5-5-12-8-20-8h-56v-56c0-8-3-15-8-20l-40-40 40-40c5-5 8-12 8-19v-57h56c8 0 15-3 20-8l40-39 39 39c6 5 13 8 20 8h57v57c-1 7 2 14 7 19z" horiz-adv-x="1000" />

<glyph glyph-name="141-diploma-1" unicode="&#xe838;" d="M954 137l-377 290-290 377c-41 53-123 64-178 12l-75-75c-50-52-44-131 12-177l346-267c-31-7-75-10-117 11-14 6-31 1-37-13-7-14-2-32 13-37 65-28 109-21 116-21-18-45-23-104 18-161 6-7 28-14 39-6 12 9 15 26 6 39-47 65-1 131 9 144l274-357c41-53 123-64 178-12l74 75c51 53 45 131-11 178z m-651 379c-11 11-28 11-39 0l-29-28-33 26 64 64c11 11 11 29 0 40-11 10-28 10-39 0l-69-70-78 60c-29 23-31 69-6 93l75 75c26 27 70 23 94-6l277-361-79-79-161 124 23 23c11 11 11 28 0 39z m623-517l-75-75c-25-27-70-23-93 6l-278 361 79 79 361-277c30-24 32-70 6-94z m-768 549l69 69c11 11 28 11 39 0 11-11 11-28 0-39l-64-64 34-26 28 28c11 11 28 11 39 0 11-11 11-28 0-39l-23-23 161-124 79 79-278 361c-23 29-67 33-93 6l-75-75c-26-24-24-70 6-93l78-60z m768-549c26 24 24 70-6 93l-361 278-79-79 278-361c23-29 67-33 93-6l75 75z" horiz-adv-x="1000" />

<glyph glyph-name="141-diploma-2" unicode="&#xe839;" d="M627 625v169h-422c-15 0-28-13-28-28v-832c0-15 13-28 28-28h590c16 0 28 13 28 28v663h-168c-16 0-28 13-28 28z m28-28c-15 0-28 13-28 29v112h-394v-775h534v634h-112z m-128 35h-224c-16 0-28 13-28 29 0 15 12 28 28 28h224c16 0 29-13 29-28 0-16-13-29-29-29z m171-155h-395c-16 0-28 13-28 29 0 15 12 28 28 28h395c15 0 28-13 28-28 0-16-13-29-28-29z m0-155h-116c-16 0-28 13-28 28 0 16 12 29 28 29h116c15 0 28-13 28-29 0-15-13-28-28-28z m0-155h-107c-16 0-28 13-28 28 0 16 12 29 28 29h107c15 0 28-13 28-29 0-15-13-28-28-28z m0-155h-157c-15 0-28 13-28 28 0 16 12 28 28 28h157c15 0 28-12 28-28 0-15-13-28-28-28z m157 650l-164 164c-16 15-37 24-59 24h-427c-46 0-84-38-84-84v-832c0-46 38-84 84-84h590c46 0 84 38 84 84v668c0 23-8 44-24 60z m-172 92l101-100h-101v100z m140-820c0-15-12-28-28-28h-590c-15 0-28 13-28 28v832c0 15 13 28 28 28h422v-168c0-16 12-29 28-29h168v-663l0 0z m-434 467c-81 0-146-66-146-147 0-51 26-96 66-122v-141c-1-25 29-37 46-22l34 28 33-28c23-17 47 3 47 22v141c40 26 66 71 66 122 0 81-65 147-146 147z m23-350l-5 5c-10 9-26 9-36 0l-6-5v59c8-1 16-2 24-2 8 0 16 1 23 2v-59z m-23 113c-50 0-90 41-90 90s41 90 90 90 90-40 90-90-40-90-90-90z m-24-54v-59l6 5c10 9 26 9 36 0l5-5v59c-7-1-27-4-47 0z m24 235c-50 0-90-41-90-91s41-90 90-90 90 41 90 90-40 91-90 91z" horiz-adv-x="1000" />

<glyph glyph-name="141-diploma-3" unicode="&#xe83a;" d="M917 713h-834c-15 0-27-12-27-28v-540c0-16 12-28 27-28h521v75c-38 31-63 78-63 130 0 93 75 167 167 167s167-74 167-167c0-52-25-99-63-130v-75h105c15 0 28 13 28 28v541c0 15-13 27-28 27z m-105-540h50c15 0 27 12 27 27v430c0 15-12 28-27 28h-723c-15 0-28-13-28-28v-430c0-15 13-27 28-27h465m55-10v-154l35 21c8 5 20 5 29 0l34-21v154c-16-5-32-8-49-8-17 0-33 3-49 8z m161 159c0 62-51 112-112 112-61 0-112-50-112-112s51-111 112-111c61 0 112 50 112 111z m-4 248h-631c-16 0-28 12-28 28 0 15 12 27 28 27h631c15 0 28-12 28-27 0-16-13-28-28-28z m-373-122h-258c-16 0-28 12-28 28 0 15 12 28 28 28h258c16 0 28-13 28-28 0-15-12-28-28-28z m0-121h-258c-16 0-28 12-28 27 0 16 12 28 28 28h258c16 0 28-12 28-28 0-15-12-27-28-27z m0-122h-258c-16 0-28 12-28 28 0 15 12 28 28 28h258c16 0 28-13 28-28 0-15-12-28-28-28z m474 564h-834c-46 0-83-38-83-84v-540c0-46 37-84 83-84h521v-102c0-21 24-35 42-23l62 38 62-38c17-12 42 2 42 23v102h105c46 0 83 38 83 84v541c0 45-37 83-83 83z m-161-760l-33 20c-9 6-21 6-29 0l-35-20v154c16-5 32-8 49-8s33 3 49 8v-154l-1 0 0 0z m-48 202c-61 0-112 50-112 111s51 112 112 112c61 0 112-50 112-112s-51-111-112-111z m237-66c0-16-13-28-28-28h-105v75c38 30 63 77 63 130 0 92-75 167-167 167s-167-75-167-167c0-52 24-100 63-130v-75h-521c-15 0-27 12-27 27v542c0 15 12 27 27 27h834c15 0 28-12 28-27v-541l0 0v0z" horiz-adv-x="1000" />

<glyph glyph-name="141-diploma-4" unicode="&#xe83b;" d="M903 850h-667c-53 0-97-44-97-97v-806c0-23-19-42-42-42s-41 19-41 42v434c0 15-13 28-28 28s-28-13-28-28v-434c0-53 44-97 97-97h806c53 0 97 44 97 97v806c0 53-43 97-97 97z m42-903c0-23-19-42-42-42h-718c6 13 10 27 10 42v806c0 23 18 42 41 42h667c23 0 42-19 42-42v-806h0v0z m-889 0c0-23 18-42 41-42s42 19 42 42v434h-83l0 0v-434z m847 848h-667c-23 0-42-19-42-42v-806c0-15-3-29-9-42h718c23 0 42 19 42 42v806c0 23-19 42-42 42z m-42-84h-580c-16 0-28-12-28-28 0-15 12-28 28-28h580c16 0 28 13 28 28 0 16-12 28-28 28z m0-139h-580c-16 0-28-12-28-28 0-15 12-27 28-27h580c16 0 28 12 28 27 0 16-12 28-28 28z m-580-194h207c16 0 28 12 28 28 0 15-12 27-28 27h-207c-16 0-28-12-28-27s12-28 28-28z m0-139h207c16 0 28 12 28 28 0 15-12 28-28 28h-207c-16 0-28-13-28-28s12-28 28-28z m242-84h-242c-16 0-28-12-28-27 0-16 12-28 28-28h242c15 0 28 12 28 28s-13 27-28 27z m0-138h-242c-16 0-28-13-28-28s12-28 28-28h242c15 0 28 12 28 28 0 15-13 28-28 28z m147 119v-111l32 24c10 7 24 7 34 0l31-24v111c-15-4-31-7-48-7s-33 2-49 7z m49 278c-63 0-115-52-115-115s52-115 115-115c63 0 115 52 115 115s-52 115-115 115z m0 55c-94 0-170-76-170-170 0-55 26-103 66-135v-195c2-27 28-34 44-22l60 45 59-45c19-16 46 3 45 22v195c40 32 66 80 66 135 0 94-76 170-170 170z m48-444l-31 24c-10 7-24 7-34 0l-31-24v111c15-5 31-7 48-7 17 0 33 2 48 7v-111h0z m-48 159c-63 0-115 52-115 115s52 115 115 115c63 0 115-52 115-115s-52-115-115-115z" horiz-adv-x="1000" />

<glyph glyph-name="141-diploma-5" unicode="&#xe83c;" d="M917 850h-833c-46 0-84-37-84-83v-615c0-46 38-83 84-83h300c6-7 12-14 18-20v-171c1-24 28-38 47-20l51 46 51-46c19-17 47-2 47 20v171c6 6 13 12 18 20h301c45 0 83 37 83 83v615c0 46-37 83-83 83z m-375-909l-23 21c-11 9-27 9-37 0l-24-21v76c14-4 28-6 42-6 15 0 29 2 42 6v-76h0z m-42 126c-49 0-90 40-90 89 0 49 41 89 90 89s90-40 90-89c0-50-40-89-90-89z m445 85c0-15-13-28-28-28h-275c2 10 4 21 4 32 0 80-66 145-146 145s-145-65-145-145c0-11 1-22 4-32h-275c-16 0-28 13-28 28v615c0 15 12 28 28 28h833c15 0 27-13 27-28v-615h1v0z m-28 643h-833c-16 0-28-13-28-28v-615c0-15 12-28 28-28h274c-2 11-3 21-3 32 0 80 65 145 145 145s145-65 145-145c0-11-1-22-3-32h275c15 0 28 13 28 28v615c0 15-13 28-28 28z m-217-615c-12 99-97 176-200 176s-187-77-199-176h-190v559h778v-559h-189l0 0z m113 289h-624c-15 0-28 12-28 28 0 15 12 28 28 28h624c16 0 28-13 28-28 0-16-12-28-28-28z m-75-101h-473c-16 0-28 12-28 28 0 15 12 28 28 28h473c15 0 27-13 27-28 0-16-12-28-27-28z m-460-148h-89c-15 0-28 12-28 28 0 15 12 27 28 27h89c16 0 28-12 28-27 0-16-12-28-28-28z m555 0h-89c-15 0-28 12-28 28 0 15 13 27 28 27h89c15 0 28-12 28-27 0-16-13-28-28-28z m-333 25c-49 0-90-40-90-89 0-50 41-90 90-90s90 40 90 90c0 49-40 89-90 89z m-42-228v-76l23 21c11 9 27 9 38 0l23-21v76c-14-4-28-6-42-6-15 0-29 2-42 6z m237 569l-52 48-52-49c-11-10-27-10-38 0l-52 49-52-49c-11-10-27-10-38 0l-52 49-52-48c-11-11-29-10-39 1-10 11-10 29 2 39l70 66c11 10 27 10 38 0l52-48 53 48c10 10 27 10 37 0l53-48 52 48c10 10 27 10 38 0l71-66c11-10 12-28 1-39-10-10-29-13-40-1z" horiz-adv-x="1000" />

<glyph glyph-name="141-dna" unicode="&#xe83d;" d="M658 508c-72 72-203 66-287 46 14 72 29 212-46 288-10 10-28 12-40 0 0 0 0 0 0 0l-277-277c0 0 11 11 0 0-11-11-10-30 0-40 96-89 258-52 288-46-15-72-33-215 46-287 98-90 258-52 287-46-14-72-29-212 46-288 10-10 28-12 40 0l277 277c12 12 9 30 0 40-76 75-216 60-288 46 14 72 30 212-46 287z m-588 40l232 232c10-18 17-39 21-62l-191-191c-23 4-44 11-62 21z m137-24l119 119c-2-40-9-78-16-103-25-7-63-14-103-16z m149-30c20 5 60 14 103 16l-119-119c2 40 9 77 16 103z m-12-178l191 191c24-4 45-11 62-21l-232-232c-11 18-18 39-21 62z m59-102l232 232c11-17 17-39 21-61l-191-191c-24 3-45 10-62 20z m465-41c23-4 44-10 62-21l-232-232c-11 18-17 39-21 62l191 191z m-75 3l-119-119c2 40 9 78 15 104 26 6 64 13 104 15z m-149 30c-20-5-60-13-104-16l120 120c-3-40-10-78-16-104z m-184 304c-44-2-84-11-104-16-7-26-14-63-15-103l119 119z m136-24c-16 10-37 17-61 21l-192-191c4-23 11-44 21-62l232 232z m63-176l-119-120c44 3 83 11 104 16 6 26 13 64 15 104z m-23 137l-232-232c16-11 37-17 61-21l191 191c-4 22-10 44-20 62z m157-271c-40-2-78-9-104-15-6-26-13-64-15-104l119 119z m-116-194c4-23 10-44 21-62l232 232c-18 11-39 18-62 21l-191-191z m-375 798l-232-232c18-10 39-17 62-21l191 191c-4 23-10 44-21 62z m24-137l-119-119c40 2 78 9 104 16 6 25 13 63 15 103z" horiz-adv-x="1000" />

<glyph glyph-name="141-earth-globe" unicode="&#xe83e;" d="M649-39h-185c-16 0-31-7-42-19l-34-37h336l-34 37c-10 12-25 19-41 19z m-93 834c-153 0-278-125-278-278s125-278 278-278 278 124 278 278-124 278-278 278z m0-501c-122 0-222 100-222 223s100 222 222 222 223-100 223-222-100-223-223-223z m314-92c11 11 11 29 0 40-11 10-28 10-39 0-152-152-399-152-551 0s-151 398 0 550c11 11 11 28 0 39-11 11-28 11-39 0-173-173-173-455 0-629 80-79 182-122 286-129v-56h-64c-32 0-62-14-83-37l-76-84c-15-18-6-43 21-46h461c30 0 34 30 21 46l-76 84c-21 23-51 37-83 37h-65v56c105 7 207 50 287 129z m-222-241c16 0 31-7 42-19l34-37h-336l34 37c10 12 25 19 41 19h185z m-92 222c184 0 333 150 333 334s-150 333-333 333-334-150-334-333 150-334 334-334z m126 86c11 19 21 39 29 62 14-3 27-8 39-12-20-20-43-37-68-50z m105 95c-18 8-38 15-60 21 8 32 13 67 14 104h91c-4-46-20-89-45-125z m45 180h-91c-1 37-6 72-14 105 22 5 42 12 61 20 24-36 40-79 44-125z m-82 170c-12-4-25-8-39-12-8 23-18 44-30 62 26-13 49-30 69-50z m-166 73c27-14 53-48 72-96-23-4-47-6-72-7v103z m0-159c30 1 60 4 89 9 6-28 11-59 13-93h-102v84z m0-139h102c-2-34-7-65-13-93-29 5-59 8-89 9v84z m0-140c24-1 49-3 72-7-19-48-45-82-72-96v103z m-305 140h91c2-37 6-72 14-105-22-6-42-12-60-21-24 37-40 80-45 126z m82-170c12 4 25 8 39 12 8-23 18-43 29-62-25 13-48 30-68 50z m167-73c-27 14-53 48-73 96 24 4 48 6 73 7v-103z m0 159c-31-1-61-4-89-9-7 28-12 59-13 93h102v-84z m0 382v-103c-25 1-49 3-73 7 20 48 46 82 73 96z m0-159v-84h-102c1 34 6 65 13 93 28-5 58-8 89-9z m-98 136c-12-18-22-39-30-62-14 4-27 8-39 12 20 20 43 37 69 50z m-106-95c18-8 38-15 60-21-7-32-12-67-14-104h-91c5 46 20 89 45 125z" horiz-adv-x="1000" />

<glyph glyph-name="141-email" unicode="&#xe83f;" d="M788 587c0 15-12 28-28 28h-39c0 0 0 0-1 0h0-480c-16 0-28-13-28-28v-280l270-231c10-9 25-9 36 0l270 231v280z m-141-112h-295c-15 0-28 13-28 28 0 15 13 28 28 28h296c15 0 27-12 27-28 0-15-12-28-28-28z m0-105h-295c-15 0-28 13-28 28 0 16 13 28 28 28h296c15 0 27-12 27-28 0-15-12-28-28-28z m-45-105h-204c-15 0-28 13-28 28 0 15 12 28 28 28h204c15 0 28-12 28-28 0-15-13-28-28-28z m388 184l-146 125v13c0 46-38 83-84 83h-29l-177 151c-31 27-77 27-108 0l-177-151h-29c-46 0-84-37-84-83v-13l-146-126c-6-5-10-12-10-21v-485c0-46 37-83 83-83h834c46 0 83 37 83 83v486c0 8-4 15-10 21z m-146 52l85-74-85-73v147z m-362 278c10 9 25 9 36 0l127-109h-290l127 109z m-270-192c0 15 12 28 28 28h480 1c0 0 0 0 0 0h39c16 0 28-13 28-28v-280l-270-231c-10-9-26-9-36 0l-270 231v280z m-56-86v-147l-85 74 85 73z m-101-554v420l246-210-246-210z m48-33l241 206 102-86c30-26 77-27 108 0l101 86 241-206h-793l0 0z m841 33l-245 210 245 210v-420z m-390 87c-31-27-77-26-108 0l-102 86-241-206h794l-241 207-102-87z m-199 636h290l-127 109c-10 9-26 9-36 0l-127-109z" horiz-adv-x="1000" />

<glyph glyph-name="141-eraser" unicode="&#xe840;" d="M440-51l71 70-311 311-132-132c-17-16-17-43 0-59l190-190c8-8 18-13 30-13h122c12 0 22 5 30 13z m241 803c-16 16-44 16-60 0l-382-382 311-311 382 382c17 16 17 43 0 59l-251 252z m-30-49l-26-26 82-82c11-11 11-29 0-40-8-7-30-9-40 0l-81 82-53-52 27-28c11-11 11-28 0-39-10-10-31-8-39 0l-28 27-175-176 232-232 334 333-233 233z m321-163l-252 251c-39 39-102 36-138 0l-553-553c-39-38-39-100 0-138l189-190c19-19 44-29 70-29h123c26 0 50 10 69 29l492 492c37 37 37 100 0 138z m-532-591c-7-8-18-13-30-13h-122c-12 0-22 5-30 13l-190 190c-16 15-17 43 0 59l132 132 311-311-71-70z m492 492l-382-382-311 310 382 383c15 15 43 17 60 0l251-252c17-16 17-43 0-59z" horiz-adv-x="1000" />

<glyph glyph-name="141-exam" unicode="&#xe841;" d="M605 8h-98c-15 0-28 12-28 27v98c0 8 3 15 8 20l193 193v420c0 16-12 28-28 28h-437v-132c0-15-12-27-27-27h-132v-702c0-15 12-28 28-28h569c15 0 27 13 27 28v138l-55-55c-5-5-12-8-20-8z m-418 627h-73l-7-643c0-16 12-28 27-28l458-6c16 0 28 13 28 28l1 26c-5-3-11-5-16-5h-98c-15 0-28 13-28 28v98c0 7 3 15 8 20l137 136 4 419c0 15-12 28-27 28l-386 4v-78c0-15-12-27-28-27z m353 2h-231c-16 0-28 12-28 28 0 15 12 28 28 28h231c15 0 28-13 28-28 0-16-13-28-28-28z m0-157h-344c-15 0-28 12-28 28s13 27 28 27h344c15 0 28-12 28-27 0-16-13-28-28-28z m0-158h-344c-15 0-28 13-28 28 0 16 13 28 28 28h344c15 0 28-12 28-28 0-15-13-28-28-28z m-151-157h-193c-15 0-28 12-28 28 0 15 13 28 28 28h193c15 0 28-13 28-28 0-16-13-28-28-28z m0-157h-193c-15 0-28 12-28 27s13 28 28 28h193c15 0 28-12 28-28s-13-27-28-27z m590 460l-39 39c-30 28-69 28-98 0l-106-106v365c0 46-38 84-84 84h-441c-23 0-44-9-59-25l-128-127c-15-16-24-36-24-59v-705c0-46 37-84 83-84h569c46 0 84 38 84 84v192l243 244c29 29 27 72 0 98z m-819 287v-65h-65l65 65z m520-822c0-15-12-27-28-27h-569c-15 0-27 12-27 27v702h131c16 0 28 12 28 27v132h437c16 0 28-12 28-28v-420l-192-193c-5-5-8-12-8-20v-98c0-15 12-28 28-28h98c7 0 14 3 19 9l56 55-1-138 0 0z m-86 130h-59v59l271 271 59-59-271-271z m346 346l-36-35-58 58 35 36c7 6 14 5 20 0l39-39c5-4 6-15 0-20z m-39 59c-6 5-13 6-20 0l-36-36 59-58 36 35c6 5 5 16 0 20l-39 39z" horiz-adv-x="1000" />

<glyph glyph-name="141-exam-1" unicode="&#xe842;" d="M549 107l-36-79c-4-9-13-15-22-16 0 0-129-15-130-15-17 1-29 15-27 31l14 127c1 9 7 18 16 22l79 36c-1 6-1 12 3 18 34 66 99 149 177 228 16 15 33 32 51 48v260c0 15-13 28-28 28h-236v-143c0-16-12-28-27-28h-327v-691c0-15 12-27 27-27h563c15 0 28 12 28 27v247c-38-30-75-54-107-71-4-2-12-4-18-2z m69 632h-207v-87c0-16-13-28-28-28h-242l-30-13v-650h507v179c-18-12-35-22-51-30-4-3-12-5-18-3l-36-79c-4-9-12-15-22-16 0 0-128-15-130-15-17 1-29 15-27 31l14 127c1 10 7 18 16 22l79 36c-1 6-1 13 3 18 34 65 97 146 172 223v285h0z m326-131c0 0-69 16-282-189-67-68-124-138-158-196l55-55c58 34 129 91 196 158 144 144 199 260 189 282z m-761-118h370c15 0 28 12 28 28 0 15-13 28-28 28h-370c-15 0-27-13-27-28 0-16 12-28 27-28z m0-158h234c16 0 28 12 28 28 0 15-13 27-28 27h-234c-15 0-27-12-27-27 0-16 12-28 27-28z m87-103h-87c-15 0-27-13-27-28 0-16 12-28 27-28h87c16 0 28 12 28 28 0 15-12 28-28 28z m0-159h-87c-15 0-27-12-27-28 0-15 12-27 27-27h87c16 0 28 12 28 27s-12 28-28 28z m714 578c-54 53-179-33-254-94v213c0 46-38 83-84 83h-249c-13 0-27-3-38-9 0 0-315-139-316-139-26-14-43-43-43-73v-696c0-46 37-83 83-83h563c46 0 83 37 83 83v293c22 19 44 39 65 61 102 102 257 293 190 361z m-629 130v-99h-225l225 99z m319-845c0-15-13-27-28-27h-563c-15 0-27 12-27 27v691h327c15 0 28 12 28 28v143h235c15 0 28-13 28-28v-260c-18-16-35-33-51-48-78-79-143-162-177-228-3-6-4-12-3-18l-79-36c-9-5-15-13-16-23l-14-126c-2-16 10-30 27-31 1 0 130 14 130 14 10 2 18 8 22 17l36 78c6-1 14 1 18 3 33 17 69 41 107 71v-247h0z m-194 236l25-25-36-79-76-8 9 76 78 36z m275 157c-67-67-138-124-196-158l-55 55c34 58 91 129 158 196 213 205 282 189 282 190 10-23-45-139-189-283z" horiz-adv-x="1000" />

<glyph glyph-name="141-exchange" unicode="&#xe843;" d="M384 446c0 20-11 38-28 45-43 20-89 29-136 29s-93-9-136-29c-17-8-28-26-28-45v-99h328v99z m-164 221c35 0 64 29 64 64s-29 64-64 64-64-29-64-64 29-64 64-64z m724-662c0 20-11 38-28 45-43 20-88 29-136 29-47 0-93-9-136-29-17-7-28-26-28-45v-99h328v99z m-164 221c36 0 64 29 64 64 0 35-29 64-64 64-35 0-64-29-64-64 0-35 29-64 64-64z m-402 316c-50 22-103 34-158 34s-109-11-159-34c-37-17-61-55-61-96v-127c0-15 12-28 28-28h384c15 0 28 12 28 28v127c0 41-24 79-62 96z m-322-96c0 20 11 38 28 45 43 20 89 29 136 29s93-9 136-29c17-8 28-26 28-45v-99h-328v99z m164 165c66 0 119 54 119 120s-53 119-119 119-119-53-119-119 53-120 119-120z m0 184c35 0 64-29 64-64s-29-64-64-64-64 29-64 64 29 64 64 64z m719-694c-51 23-104 34-159 34s-108-11-158-34c-38-17-62-55-62-96v-127c0-16 13-28 28-28h384c15 0 28 12 28 28v127c0 41-24 79-61 96z m-323-96c0 20 11 38 28 45 43 20 89 29 136 29 48 0 93-9 136-29 17-8 28-26 28-45v-99h-328v99z m164 165c66 0 120 54 120 120s-54 119-120 119-119-53-119-119 53-120 119-120z m0 184c36 0 64-29 64-64 0-35-29-64-64-64-35 0-64 29-64 64 0 35 29 64 64 64z m-27 194l1-7-31 22c-12 9-30 6-38-7-9-13-6-30 6-39l86-60c15-9 30-5 39 7l60 85c9 13 6 30-6 39-13 9-30 6-39-7l-22-30-1 7c-21 121-137 203-258 182-15-3-25-17-23-32 3-15 17-26 32-23 92 16 178-46 194-137z m-312-533c-91-15-178 46-194 137l-1 7 31-22c12-9 30-6 39 7 9 13 6 30-7 39l-86 60c-14 9-29 6-38-6l-61-86c-9-12-6-30 7-39 12-8 30-6 38 7l22 31 1-7c21-122 136-204 258-183 15 3 25 17 22 33-2 15-16 25-31 22z" horiz-adv-x="1000" />

<glyph glyph-name="141-file" unicode="&#xe844;" d="M755 717h-352c0 0 0 0 0 0h-1v-152c0-15-13-27-28-27h-162v-524c0-17 15-30 34-30h514c16 0 28 12 28 28v245c0 0 0 0 0 1v429c0 17-15 30-33 30z m-353-55h303c15 0 28-13 28-28v-567c0-15-13-28-28-28h-410c-15 0-27 13-27 28v471m395 13h-154c-16 0-28 12-28 28 0 15 12 27 28 27h154c15 0 27-12 27-27 0-16-12-28-27-28z m0-152h-325c-16 0-28 12-28 28 0 15 12 27 28 27h325c15 0 27-12 27-27s-12-28-27-28z m0-152h-325c-16 0-28 12-28 28 0 15 12 28 28 28h325c15 0 27-13 27-28s-12-28-27-28z m0-152h-325c-16 0-28 12-28 28 0 15 12 28 28 28h325c15 0 27-13 27-28s-12-28-27-28z m268 420l-87 57v-229l95 131c9 15 6 29-8 41z m-420 274c-15 10-37 6-47-8l-6-8h78l-25 16z m-22-877c15-10 37-6 47 8l6 8h-78l25-16z m-419 274l87-57v229l-96-131c-9-15-7-28 9-41z m891 375l-118 77v49c0 47-39 86-88 86h-117l-96 62c-47 26-97 15-123-21l-30-42c-7 3-43-13-53-24l-153-146c-17-16-27-38-27-61v-88l-140-194c-28-36-18-92 23-119l118-77v-49c0-48 39-86 88-86h117l96-63c37-24 93-20 123 22l30 41h149c46 0 83 38 83 84v237l140 192c29 40 20 89-22 120z m-804-432l-88 57c-15 12-17 26-8 41l96 131v-229z m307 652c10 14 32 18 47 8l25-16h-78l6 8z m-118-101v-87h-92l92 87z m190-760c-10-14-32-18-47-8l-25 16h78l-6-8z m252 337v-245c0-16-12-28-28-28h-515c-18 0-33 13-33 30v524h162c15 0 27 12 27 28v151h2c0 0 0 0 0 0h352c18 0 33-13 33-30v-429c0-1 0-1 0-1z m151 217l-95-131v229l86-57c15-12 18-26 9-41z" horiz-adv-x="1000" />

<glyph glyph-name="141-file-1" unicode="&#xe845;" d="M707 44c11 4 23 1 30-7l84-89v819c0 15-12 28-27 28h-56v-238c-1-24-27-37-46-22l-44 39-45-39c-18-16-46-1-46 21v239h-351c-15 0-28-13-28-28v-834c0-15 13-28 28-28h127l374 139z m31 695v-182c-1-24-27-37-46-22l-44 39-45-39c-18-16-46-1-46 21v183h-295c-15 0-28-12-28-28v-722c0-16 12-28 28-28h222l223 83c11 4 23 1 30-7l29-30v704c0 15-13 28-28 28z m-283-75h-159c-15 0-28 13-28 28s13 28 28 28h159c15 0 28-12 28-28s-12-28-28-28z m0-184h-159c-15 0-28 12-28 28s13 27 28 27h159c15 0 28-12 28-27s-12-28-28-28z m249-185h-408c-15 0-28 13-28 28 0 15 13 28 28 28h408c15 0 28-12 28-28s-13-28-28-28z m0-184h-408c-15 0-28 12-28 27 0 16 13 28 28 28h408c15 0 28-12 28-28 0-15-13-27-28-27z m173 656c0 46-37 83-83 83h-588c-46 0-83-37-83-83v-834c0-46 37-83 83-83h643 0c16 0 28 12 28 28 0 0 0 889 0 889z m-264 28h70v-178l-17 14c-13 9-25 9-36 0l-17-14 0 178 0 0z m-119-890l215 80 76-80h-291z m327 43l-84 89c-8 8-19 11-30 7l-374-139h-127c-15 0-27 13-27 28v834c0 15 12 28 27 28h351v-238c1-23 29-38 46-22l45 39 45-39c19-15 45-2 46 22v238h55c15 0 28-13 28-28v-820h-1l0 1 0 0z m-155 683l17-14v178h-70v-178l17 14c11 9 23 9 36 0z" horiz-adv-x="1000" />

<glyph glyph-name="141-files" unicode="&#xe846;" d="M770 546h-28v94c0 46-37 84-83 84h-90v1c0 69-56 125-125 125s-125-56-125-125v-1h-88c-46 0-84-38-84-84v-585c0-46 38-83 84-83h55v-39c0-46 37-83 83-83h288c22 0 43 9 59 24l113 113c15 16 24 37 24 59v417c0 46-37 83-83 83z m-111 122c15 0 28-12 28-28v-94h-118v122c0 0 90 0 90 0z m-284 57c0 38 31 70 69 70s70-32 70-70v-1h-139v1l0 0z m-144-698c-16 0-28 13-28 28v585c0 16 12 28 28 28h282v-122h-55v58c0 15-12 28-28 28-15 0-28-13-28-28v-58h-33c-46 0-83-37-83-83v-436h-55l0 0z m227 464h55v-17c0-16-12-28-27-28s-28 12-28 28v17h0z m-116-558v530c0 15 12 28 28 28h33v-17c0-46 37-84 83-84s83 38 83 84v17h145 1 0 55c16 0 28-13 28-28v-412h-118c-15 0-28-13-28-28v-118h-282c-16 0-28 13-28 28z m366 12v50h51l-51-50z m-139 723v-122h118v94c0 16-13 28-28 28 0 0-90 0-90 0z m-167-122v58c0 15 13 28 28 28 16 0 28-13 28-28v-58h55v122h-282c-16 0-28-12-28-28v-585c0-15 12-28 28-28h55v436c0 46 37 83 83 83h33z m278-495h118v412c0 15-13 28-28 28h-55-1 0-145v-17c0-46-37-84-83-84s-84 38-84 84v17h-32c-16 0-28-12-28-28v-530c0-15 12-27 28-27h282v117c0 16 13 28 28 28z m-194 395c15 0 28 12 28 28v17h-56v-17c0-16 12-28 28-28z m256-11h-182c-14-26-42-45-74-45s-60 19-74 45h-14v-474h248l7 7v55c0 16 12 28 27 28h56l7 7v377h-1z m-72-149h-200c-15 0-28 13-28 28 0 16 13 28 28 28h200c15 0 27-12 27-28 0-15-12-28-27-28z m0-145h-200c-15 0-28 12-28 28 0 15 13 28 28 28h200c15 0 27-13 27-28 0-16-12-28-27-28z m-101-146h-99c-16 0-28 13-28 28 0 16 12 28 28 28h99c15 0 28-12 28-28 0-15-12-28-28-28z" horiz-adv-x="1000" />

<glyph glyph-name="141-flask" unicode="&#xe847;" d="M740 411c-11 5-17 15-17 26v247h-139v-247c0-11-7-21-18-26-28-10-52-26-73-45h66c15 0 27-12 27-28s-12-27-27-27h-111c-7-13-13-26-18-40h54c16 0 28-12 28-28 0-15-12-27-28-27h-67c0-9-1-17-1-25 0-9 1-19 2-28h470c1 9 2 18 2 28 0 98-59 185-150 220z m-309-303c34-90 121-154 222-154s188 64 222 154h-444z m541 478h-194v98h0c15 0 28 12 28 28 0 15-12 28-28 28h-250c-15 0-28-13-28-28 0-16 12-28 28-28h0v-98h-319v236c0 16-13 28-28 28s-28-12-28-28v-236h-125c-15 0-28-12-28-28 0-15 12-28 28-28h125v-624h-125c-15 0-28-13-28-28 0-16 12-28 28-28h409c16 0 28 12 28 28 0 15-12 28-28 28h-229v624h320v-74c-103-48-168-150-168-265 0-161 132-292 293-292 161 0 292 131 292 292 0 115-65 217-167 265v74h194c15 0 28 13 28 28 0 16-12 28-28 28z m-319-632c-102 0-188 64-222 154h444c-34-90-121-154-222-154z m237 237c0-9-1-19-2-28h-470c-1 9-2 19-2 28 0 8 1 17 1 25h67c15 0 28 12 28 28 0 15-12 27-28 27h-54c5 14 11 27 18 40h110c16 0 28 12 28 28 0 15-12 27-28 27h-65c21 19 45 35 73 46 10 4 17 14 17 25v247h139v-247c0-11 7-21 18-26 91-35 150-122 150-220z" horiz-adv-x="1000" />

<glyph glyph-name="141-flask-1" unicode="&#xe848;" d="M961 23l-276 517v254h25c15 0 28 13 28 28s-13 28-28 28h-418c-16 0-28-12-28-28s12-28 28-28h24v-254l-276-517c-42-77 16-173 104-173h713c83 0 145 89 104 173z m-104-118h-712c-47 0-77 56-55 92l159 298h504l159-298c21-37-5-93-55-92z m-485 628v261h258v-261c0-4 1-9 3-13l90-169h-445l90 169c2 4 4 9 4 13z m381-238h-505l-159-298c-22-36 9-92 55-92h713c50-1 76 55 55 92l-159 298z m111-324l-144 269h-438l-13-26h82c16 0 28-12 28-28 0-15-12-28-28-28h-112l-31-58h58c16 0 28-12 28-27 0-16-12-28-28-28h-87l-40-74c-3-7 3-10 6-10h713c6 0 7 7 6 10z m-141 380l-90 169c-2 4-3 9-3 13v261h-258v-261c0-4-2-9-4-13l-90-169h445v0h0z" horiz-adv-x="1000" />

<glyph glyph-name="141-folder" unicode="&#xe849;" d="M745 654h-152c-15 0-28 12-28 28v113h-282c-15 0-28-13-28-28v-373h490l0 260 0 0z m-180 85h-254v-345h379v247l-16 13h-81c-15 0-27 12-27 28v56l-1 1z m352-400h-834c-16 0-29-13-27-34l86-378c3-13 14-22 27-22h663c13 0 24 9 27 22l85 378c4 19-10 34-27 34z m-799-56l26-116h139c15 0 28-12 28-27 0-16-13-28-28-28h-126l14-62h50c16 0 28-13 28-28 0-15-12-28-28-28h-37l7-33h619l72 322h-764z m243 383h114c15 0 27 12 27 28s-12 27-27 27h-114c-16 0-28-12-28-27s12-28 28-28z m279-61h-279c-16 0-28-13-28-28 0-15 12-28 28-28h279c15 0 28 12 28 28 0 15-13 28-28 28z m0-117h-279c-16 0-28-12-28-28s12-28 28-28h279c15 0 28 13 28 28s-13 28-28 28z m-441 106h-33c-15 0-28-13-28-28v-172h62v200h-1z m602-200h62v78c0 15-12 28-28 28h-34v-106l0 0z m118 0v78c0 46-38 83-84 83h-34v100c0 25-12 49-32 65l-144 112c-14 12-33 18-51 18h-291c-46 0-84-37-84-83v-118h-33c-46 0-83-37-83-83v-172c-53-3-92-44-81-101l85-378c9-38 42-65 82-65h662c40 0 73 27 82 65l85 378c11 54-28 100-79 101z m-118 105h34c16 0 28-12 28-27v-78h-62v105l0 0z m-180 266l72-56h-72v56z m-366 2c0 15 12 28 28 28h283v-113c0-16 12-28 27-28h153v-260h-491v373l0 0z m-117-201c0 15 12 28 28 28h33v-200h-61v172z m806-261l-85-378c-3-13-14-22-28-22h-662c-13 0-25 9-28 22l-85 378c-2 21 12 34 28 34h833c17 0 31-15 27-34z" horiz-adv-x="1000" />

<glyph glyph-name="141-germs" unicode="&#xe84a;" d="M263 202c-9 10-27 11-39 0l-23-23 65-65c11-11 11-28 0-39s-28-11-39 0l-65 65-38-39 30-30c11-11 11-28 0-39s-28-11-39 0l-30 30-13-12c-22-22-22-59 0-81l47-47c24-23 60-21 81 0l152 152c11 11 11 29 0 40l-89 88z m186 35c-23 18-44 39-62 62l-71-71 62-62 71 71z m209 613c-189 0-343-153-343-342 0-59 15-113 41-162l-86-85c-30 10-62 2-85-20l-152-152c-44-44-44-116 0-160l46-46c45-45 120-43 160 0l152 152c23 23 29 56 20 85l86 86c48-26 102-40 161-40 189 0 342 153 342 342s-153 342-342 342z m-306-776l-152-152c-21-21-57-23-81 0l-47 46c-22 23-22 59 0 82l13 12 30-31c11-10 29-10 39 0s11 29 0 40l-30 30 38 38 65-65c11-10 28-10 39 0s11 29 0 40l-65 65 23 22c12 12 30 11 39 0l89-88c10-10 10-28 0-39z m-36 154l71 71c18-23 39-44 62-62l-71-71-62 62z m55 280c0 158 128 287 287 287s287-129 287-287-129-287-287-287-287 128-287 287z m287-230c-62 0-120 24-163 67-90 90-90 236 0 326 43 43 101 67 163 67 61 0 119-24 163-67 89-90 89-236 0-326-44-43-102-67-163-67z m-17 377c9 9 24 9 33 0 12-12 31-10 39 0 11 11 11 28 0 39-30 31-80 31-111 0-11-11-11-28 0-39 11-11 28-11 39 0z m192-34c-15 0-28-12-28-28 0-27-22-49-49-49-16 0-28-12-28-28 0-15 12-28 28-28 57 0 105 47 105 105 0 16-12 28-28 28z m-160-182c11 11 11 29 0 39-18 19-18 49 0 67 11 11 11 29 0 39-11 11-28 11-39 0-40-40-40-105 0-145 11-11 30-10 39 0z m118-18c-14 7-30 0-36-14-21-43-63-57-104-41-14 7-30 0-36-14-6-14 0-30 14-36 65-30 149 0 177 69 6 14-1 30-15 36z m-314 153c-14-7-20-24-13-37 10-19 2-47-19-57-13-7-19-23-12-37 6-13 25-19 37-13 46 21 70 82 44 132-7 13-24 19-37 12z" horiz-adv-x="1000" />

<glyph glyph-name="141-glasses" unicode="&#xe84b;" d="M772 850c-15 0-27-12-27-28s12-28 27-28c95 0 173-77 173-172v-455c-22 14-278 5-278 5-46 0-83-37-83-83v-48c-53 27-115 27-167 0v48c0 46-37 83-83 83 2 0-265 11-278-5v455c0 95 77 172 172 172 16 0 28 13 28 28s-13 28-28 28c-126 0-228-102-228-228v-688c0-47 38-84 84-84h249c46 0 84 37 84 83v41c47 42 119 42 166 0v-41c0-46 38-83 84-83h250c46 0 83 37 83 83v689c0 126-102 228-228 228z m-411-917c0-15-12-28-27-28h-250c-15 0-28 13-28 28v8h51c16 0 28 12 28 27 0 16-12 28-28 28h-51v23h96c15 0 28 13 28 28 0 16-13 28-28 28h-96v14c0 15 12 27 28 27h250c15 0 27-12 27-27v-156l0 0z m584 0c0-15-13-28-28-28h-250c-15 0-28 13-28 28v156c0 15 12 27 28 27h250c15 0 28-12 28-27v-156z m-611 183h-250c-16 0-28-12-28-28v-13h96c15 0 28-12 28-28 0-15-13-28-28-28h-96v-23h51c15 0 28-12 28-28 0-15-12-28-28-28h-51v-7c0-15 12-28 28-28h250c15 0 27 13 27 28v155c0 16-12 28-27 28z m583 0h-250c-15 0-28-12-28-28v-155c0-15 12-28 28-28h250c15 0 28 13 28 28v156c0 15-13 27-28 27z" horiz-adv-x="1000" />

</font>
</defs>
</svg>
